<?xml version="1.0" standalone="no"?>
<!DOCTYPE svg PUBLIC "-//W3C//DTD SVG 1.1//EN" "http://www.w3.org/Graphics/SVG/1.1/DTD/svg11.dtd" >
<svg xmlns="http://www.w3.org/2000/svg" xmlns:xlink="http://www.w3.org/1999/xlink" version="1.1">
<metadata>
Created by FontForge 20170731 at Fri Dec 18 19:36:29 2020
 By Aleksey,,,
(c) Copyright OH no Type Company, LLC. 2020. All rights reserved.
</metadata>
<defs>
<font id="Degular-Regular" horiz-adv-x="610" >
  <font-face 
    font-family="Degular"
    font-weight="400"
    font-stretch="normal"
    units-per-em="1000"
    panose-1="4 4 4 6 6 3 3 4 3 5"
    ascent="670"
    descent="-330"
    x-height="465"
    cap-height="600"
    bbox="-281 -210 1287 910"
    underline-thickness="50"
    underline-position="-302"
    unicode-range="U+0020-FB02"
  />
<missing-glyph horiz-adv-x="855" 
d="M364 29q25 0 46 2t31 3.5t35 7t35 7.5q0 144 79 218l10 -10q-14 -34 -30 -113q120 69 120 233q0 251 -250 251q-98 0 -160 -47t-76 -125h11q54 0 80.5 -33t26.5 -80q0 -56 -36.5 -85t-80.5 -29h-5q2 -34 4 -169q60 -31 160 -31zM364 -33q-139 0 -210 64q-5 127 7 207
q-62 28 -62 103q0 34 16.5 61.5t45.5 41.5q-2 105 75.5 172.5t208.5 67.5q148 0 224 -77t76 -218q0 -107 -45 -186t-139 -110q-9 -54 -9 -84q-68 -42 -188 -42zM461 458q55 0 84.5 -33t29.5 -79q0 -53 -37 -90t-86 -37t-81.5 33t-32.5 88q0 47 32 82.5t91 35.5z" />
    <glyph glyph-name=".notdef" horiz-adv-x="855" 
d="M364 29q25 0 46 2t31 3.5t35 7t35 7.5q0 144 79 218l10 -10q-14 -34 -30 -113q120 69 120 233q0 251 -250 251q-98 0 -160 -47t-76 -125h11q54 0 80.5 -33t26.5 -80q0 -56 -36.5 -85t-80.5 -29h-5q2 -34 4 -169q60 -31 160 -31zM364 -33q-139 0 -210 64q-5 127 7 207
q-62 28 -62 103q0 34 16.5 61.5t45.5 41.5q-2 105 75.5 172.5t208.5 67.5q148 0 224 -77t76 -218q0 -107 -45 -186t-139 -110q-9 -54 -9 -84q-68 -42 -188 -42zM461 458q55 0 84.5 -33t29.5 -79q0 -53 -37 -90t-86 -37t-81.5 33t-32.5 88q0 47 32 82.5t91 35.5z" />
    <glyph glyph-name=".null" horiz-adv-x="0" 
 />
    <glyph glyph-name="nonmarkingreturn" horiz-adv-x="333" 
 />
    <glyph glyph-name="space" unicode=" " horiz-adv-x="198" 
 />
    <glyph glyph-name="exclam" unicode="!" horiz-adv-x="235" 
d="M153 211h-71v389h71v-389zM71 94h94v-94h-94v94z" />
    <glyph glyph-name="quotedbl" unicode="&#x22;" horiz-adv-x="321" 
d="M50 600h74l-12 -265h-45zM196 600h74l-12 -265h-45z" />
    <glyph glyph-name="numbersign" unicode="#" horiz-adv-x="680" 
d="M444 0h-55l14 162h-154l-17 -162h-55l15 162h-157v64h163l14 151h-177v64h182l15 159h61l-16 -159h152l14 159h62l-16 -159h156v-64h-163l-15 -151h178v-64h-185zM247 219h168l16 165h-167z" />
    <glyph glyph-name="dollar" unicode="$" horiz-adv-x="548" 
d="M251 713h63l-5 -110q83 -8 126.5 -51t61.5 -119l-72 -15q-15 67 -49.5 98t-106.5 31q-69 0 -104 -25.5t-35 -71.5q0 -43 35.5 -70t133.5 -46q120 -23 166.5 -64.5t46.5 -107.5q0 -159 -203 -167l5 -119h-63l5 120q-199 15 -225 195l69 15q26 -152 190 -152q150 0 150 103
q0 47 -36.5 73t-128.5 42q-118 21 -167 64t-49 111q0 70 50.5 112t146.5 46z" />
    <glyph glyph-name="percent" unicode="%" horiz-adv-x="735" 
d="M193 275q-72 0 -114.5 45.5t-42.5 123.5t42.5 122t114.5 44t114 -44.5t42 -121.5q0 -78 -42.5 -123.5t-113.5 -45.5zM192 327q49 0 74.5 31t25.5 86q0 54 -26 84.5t-73 30.5q-48 0 -74 -30.5t-26 -84.5q0 -55 25 -86t74 -31zM543 -10q-72 0 -114.5 45.5t-42.5 123.5
t42.5 122t114.5 44t114.5 -44.5t42.5 -121.5q0 -78 -42.5 -123.5t-114.5 -45.5zM542 41q49 0 74.5 31.5t25.5 86.5q0 54 -26 84t-73 30q-48 0 -74 -30t-26 -84q0 -55 25.5 -86.5t73.5 -31.5zM576 600h89v-6l-253 -258l-22 20zM164 0h-89v6l253 258l22 -20z" />
    <glyph glyph-name="ampersand" unicode="&#x26;" horiz-adv-x="668" 
d="M210 447q0 -49 23 -104q166 45 166 136q0 77 -84 77q-49 0 -77 -28.5t-28 -80.5zM647 61l1 -63q-22 -5 -53 -5q-96 0 -195 61q-72 -64 -187 -64q-84 0 -133 41t-49 117q0 65 36.5 106t106.5 69q-30 71 -30 124q0 79 48.5 121.5t121.5 42.5q75 0 112.5 -35t37.5 -92
q0 -40 -19 -71t-54 -51t-67 -32t-75 -22q64 -119 171 -189q100 107 119 245l64 -8q-10 -76 -48.5 -143t-99.5 -115q73 -38 144 -38q33 0 48 1zM229 47q73 0 133 34q-110 84 -174 211q-92 -39 -92 -134q0 -52 35 -81.5t98 -29.5z" />
    <glyph glyph-name="quotesingle" unicode="'" horiz-adv-x="174" 
d="M50 600h74l-12 -265h-45z" />
    <glyph glyph-name="parenleft" unicode="(" horiz-adv-x="331" 
d="M133 254q0 -127 38 -229.5t128 -198.5l-42 -35q-195 184 -195 463t195 463l42 -35q-91 -95 -128.5 -198t-37.5 -230z" />
    <glyph glyph-name="parenright" unicode=")" horiz-adv-x="331" 
d="M198 254q0 127 -38 229.5t-129 198.5l43 35q195 -185 195 -463t-195 -463l-43 35q91 95 129 198t38 230z" />
    <glyph glyph-name="asterisk" unicode="*" horiz-adv-x="502" 
d="M214 670h75l-20 -182h-33zM17 472l23 72l167 -76l-10 -32zM145 224l-61 44l122 136l27 -19zM420 269l-61 -45l-90 160l25 19zM462 544l23 -72l-179 -37l-10 32z" />
    <glyph glyph-name="plus" unicode="+" horiz-adv-x="497" 
d="M213 86v187h-181v63h181v184h70v-184h181v-63h-181v-187h-70z" />
    <glyph glyph-name="comma" unicode="," horiz-adv-x="167" 
d="M62 119h71l-100 -269h-51v6z" />
    <glyph glyph-name="hyphen" unicode="-" horiz-adv-x="350" 
d="M23 275h304v-66h-304v66z" />
    <glyph glyph-name="period" unicode="." horiz-adv-x="180" 
d="M43 94h94v-94h-94v94z" />
    <glyph glyph-name="slash" unicode="/" horiz-adv-x="309" 
d="M87 -151h-70l210 793h68z" />
    <glyph glyph-name="zero" unicode="0" horiz-adv-x="568" 
d="M284 547q-89 0 -133.5 -66t-44.5 -180t44.5 -181.5t133.5 -67.5t133.5 67.5t44.5 181.5q0 115 -44.5 180.5t-133.5 65.5zM284 611q120 0 185.5 -83.5t65.5 -226.5t-65.5 -227.5t-185.5 -84.5t-185 84.5t-65 227.5q0 142 66 226t184 84z" />
    <glyph glyph-name="one" unicode="1" horiz-adv-x="454" 
d="M418 0h-373v63h171v472q-81 -39 -157 -67l-24 61l210 71h41v-537h132v-63z" />
    <glyph glyph-name="two" unicode="2" horiz-adv-x="562" 
d="M303 549q-77 0 -119.5 -43.5t-54.5 -134.5l-68 10q32 230 241 230q102 0 155.5 -45t53.5 -131q0 -80 -55.5 -125.5t-167.5 -78.5q-107 -34 -143.5 -69t-39.5 -107q114 8 209 8h207v-63h-478q-1 15 -1 46q0 99 48 149.5t162 85.5q104 32 146 66.5t42 89.5q0 52 -34 82
t-103 30z" />
    <glyph glyph-name="three" unicode="3" horiz-adv-x="555" 
d="M292 -10q-224 0 -258 203l70 10q14 -77 58.5 -115t129.5 -38q75 0 115 30.5t40 85.5q0 57 -32 82.5t-116 25.5h-102v56h98q56 0 91 27t35 82q0 58 -32 84.5t-99 26.5q-71 0 -108.5 -34.5t-50.5 -102.5l-68 9q33 188 226 188q201 0 201 -158q0 -112 -125 -143v-10
q86 -8 120 -40t34 -98q0 -80 -56 -125.5t-171 -45.5z" />
    <glyph glyph-name="four" unicode="4" horiz-adv-x="575" 
d="M554 149h-95v-149h-70v149h-365v56l353 395h82v-392h95v-59zM285 208h104v319l-6 2l-285 -322l4 -8q93 9 183 9z" />
    <glyph glyph-name="five" unicode="5" horiz-adv-x="568" 
d="M300 50q78 0 115.5 32.5t37.5 101.5q0 121 -154 121q-44 0 -86.5 -12t-67.5 -30l-59 23v314h405v-66q-161 0 -341 9v-230q69 47 167 47q101 0 154 -45t53 -132q0 -98 -59.5 -145.5t-166.5 -47.5q-99 0 -162 40.5t-98 127.5l68 24q54 -132 194 -132z" />
    <glyph glyph-name="six" unicode="6" horiz-adv-x="561" 
d="M301 315q-90 0 -138 -38t-48 -93q0 -57 45.5 -95t127.5 -38q159 0 159 143q0 121 -146 121zM518 193q0 -95 -59.5 -149.5t-173.5 -54.5q-249 0 -249 297q0 149 61.5 237t192.5 88q103 0 152 -46t66 -141l-69 -10q-14 70 -48 102.5t-101 32.5q-97 0 -142 -67t-45 -205v-44
l11 -1q36 135 206 135q88 0 143 -42.5t55 -131.5z" />
    <glyph glyph-name="seven" unicode="7" horiz-adv-x="514" 
d="M14 535v65h489v-65q-220 -221 -244 -535h-78q12 148 79.5 291t179.5 253q-97 -9 -216 -9h-210z" />
    <glyph glyph-name="eight" unicode="8" horiz-adv-x="556" 
d="M278 -11q-242 0 -242 166q0 123 164 142v12q-136 28 -135 143q1 74 53.5 116.5t159.5 42.5t160 -42.5t53 -116.5q0 -115 -135 -143v-12q164 -19 164 -142q0 -166 -242 -166zM278 275q-170 0 -170 -114q0 -111 170 -111t170 111q0 114 -170 114zM278 549q-143 0 -143 -109
q-1 -57 38 -84.5t105 -27.5t104.5 27.5t38.5 84.5q0 109 -143 109z" />
    <glyph glyph-name="nine" unicode="9" horiz-adv-x="564" 
d="M264 285q87 0 134.5 38t47.5 92q0 58 -45 96t-125 38q-81 0 -119.5 -38t-38.5 -103q0 -123 146 -123zM275 -11q-107 0 -163 46t-72 135l68 12q25 -131 168 -131q94 0 138.5 66.5t44.5 203.5q0 25 -1 43l-10 1q-37 -132 -203 -132q-88 0 -143 43t-55 133q0 92 59.5 147
t170.5 55q248 0 248 -297q0 -149 -60.5 -237t-189.5 -88z" />
    <glyph glyph-name="colon" unicode=":" horiz-adv-x="196" 
d="M51 466h94v-94h-94v94zM51 94h94v-94h-94v94z" />
    <glyph glyph-name="semicolon" unicode=";" horiz-adv-x="200" 
d="M72 119h71l-100 -269h-51v6zM53 466h94v-94h-94v94z" />
    <glyph glyph-name="less" unicode="&#x3c;" horiz-adv-x="517" 
d="M465 17l-432 205v69l432 206v-77l-194 -79q-89 -37 -188 -71v-26q100 -33 188 -71l194 -79v-77z" />
    <glyph glyph-name="equal" unicode="=" horiz-adv-x="526" 
d="M476 188h-426v59h426v-59zM476 357h-426v59h426v-59z" />
    <glyph glyph-name="greater" unicode="&#x3e;" horiz-adv-x="517" 
d="M48 18v77l195 79q85 35 187 71v26q-109 37 -187 71l-195 79v77l433 -205v-69z" />
    <glyph glyph-name="question" unicode="?" horiz-adv-x="485" 
d="M329 278q-60 -27 -60 -86v-11h-69v13q0 45 19.5 73.5t68.5 52.5q56 28 77.5 53t21.5 68q0 107 -128 107q-78 0 -118 -42.5t-52 -127.5l-69 9q30 224 239 224q97 0 148.5 -43t51.5 -123q0 -65 -34.5 -103t-95.5 -64zM188 94h94v-94h-94v94z" />
    <glyph glyph-name="at" unicode="@" horiz-adv-x="834" 
d="M395 -112q-173 0 -267 80.5t-94 249.5q0 90 27.5 170.5t79.5 143t135 99.5t186 37q169 0 254 -90t85 -228q0 -144 -53.5 -215.5t-135.5 -71.5q-113 0 -113 111q0 17 1 29h-7q-52 -140 -149 -140q-50 0 -79 35.5t-29 106.5q0 111 45 187t126 76q90 0 109 -96h5l12 90h60
l-34 -254q-12 -93 59 -93q54 0 89 56t35 172q0 121 -68.5 194.5t-218.5 73.5q-171 0 -265 -113t-94 -279q0 -277 301 -277q50 0 108.5 11t95.5 29h10v-49q-93 -45 -216 -45zM512 314q7 47 -18 73.5t-74 26.5q-60 0 -91 -54t-31 -149q0 -94 65 -94q55 0 95 48.5t50 116.5z
" />
    <glyph glyph-name="A" unicode="A" horiz-adv-x="577" 
d="M499 0l-70 181h-283l-69 -181h-76l241 600h94l240 -600h-77zM196 312l-28 -74h239l-29 74q-43 112 -78 224h-23q-42 -125 -81 -224z" />
    <glyph glyph-name="B" unicode="B" horiz-adv-x="563" 
d="M321 272h-176v-213h182q67 0 100.5 29t33.5 78q0 53 -32.5 79.5t-107.5 26.5zM313 540h-168v-211h162q124 0 124 109q0 52 -28 77t-90 25zM73 0v600h236q193 0 193 -153q0 -112 -116 -139v-9q147 -17 147 -137q0 -75 -49.5 -118.5t-153.5 -43.5h-257z" />
    <glyph glyph-name="C" unicode="C" horiz-adv-x="623" 
d="M317 -11q-134 0 -208 84t-74 228q0 143 75.5 226.5t208.5 83.5q112 0 180.5 -59.5t85.5 -163.5l-68 -14q-36 172 -198 172q-105 0 -158.5 -65.5t-53.5 -179.5q0 -117 53 -182.5t157 -65.5q169 0 203 178l69 -14q-17 -107 -87 -167.5t-185 -60.5z" />
    <glyph glyph-name="D" unicode="D" horiz-adv-x="631" 
d="M288 538h-143v-476h150q230 0 230 241q0 121 -57 178t-180 57zM73 0v600h225q149 0 224 -76t75 -221q0 -142 -79 -222.5t-217 -80.5h-228z" />
    <glyph glyph-name="E" unicode="E" horiz-adv-x="529" 
d="M72 0v600h404v-65h-331v-197h296v-64h-296v-209h331v-65h-404z" />
    <glyph glyph-name="F" unicode="F" horiz-adv-x="494" 
d="M423 250h-278v-250h-72v600h386v-67h-314v-219h278v-64z" />
    <glyph glyph-name="G" unicode="G" horiz-adv-x="641" 
d="M304 -10q-127 0 -200 78t-73 225t73.5 232.5t213.5 85.5q113 0 179.5 -57t85.5 -162l-68 -15q-37 169 -196 169q-215 0 -215 -253q0 -240 219 -240q198 0 198 176v-2v11h-200v63h269v-301h-68v137h-8q-21 -66 -73 -106.5t-137 -40.5z" />
    <glyph glyph-name="H" unicode="H" horiz-adv-x="637" 
d="M564 0h-72v267h-347v-267h-72v600h72v-268h347v268h72v-600z" />
    <glyph glyph-name="I" unicode="I" horiz-adv-x="218" 
d="M145 0h-72v600h72v-600z" />
    <glyph glyph-name="J" unicode="J" horiz-adv-x="304" 
d="M160 151v449h72v-448q0 -160 -145 -160q-38 0 -74 7l4 64q33 -6 62 -6q81 0 81 94z" />
    <glyph glyph-name="K" unicode="K" horiz-adv-x="557" 
d="M471 0l-275 254h-51v-254h-72v600h72v-284h48l265 284h82v-11l-292 -299l308 -279v-11h-85z" />
    <glyph glyph-name="L" unicode="L" horiz-adv-x="456" 
d="M145 600v-534h289v-66h-361v600h72z" />
    <glyph glyph-name="M" unicode="M" horiz-adv-x="788" 
d="M142 314v-314h-70v600h124l119 -295q23 -58 70 -195h19q40 121 70 196l123 294h118v-600h-72v314q0 27 3 225h-19q-51 -151 -87 -238l-112 -263h-77l-110 266q-35 87 -82 235h-19q2 -66 2 -225z" />
    <glyph glyph-name="N" unicode="N" horiz-adv-x="635" 
d="M466 0l-199 321q-53 85 -111 211h-23q9 -126 9 -293v-239h-70v600h108l175 -282q74 -123 128 -238h20q-9 144 -9 281v239h69v-600h-97z" />
    <glyph glyph-name="O" unicode="O" horiz-adv-x="658" 
d="M329 -11q-140 0 -217.5 85.5t-77.5 226.5t78 225.5t217 84.5t217 -84.5t78 -225.5t-77.5 -226.5t-217.5 -85.5zM329 53q110 0 166.5 67t56.5 181q0 113 -56.5 179t-166.5 66q-109 0 -166 -66.5t-57 -178.5q0 -114 56.5 -181t166.5 -67z" />
    <glyph glyph-name="P" unicode="P" horiz-adv-x="523" 
d="M293 537h-148v-247h149q72 0 105.5 30t33.5 93q0 66 -31.5 95t-108.5 29zM302 229h-157v-229h-72v600h227q204 0 204 -186q0 -84 -53 -134.5t-149 -50.5z" />
    <glyph glyph-name="Q" unicode="Q" horiz-adv-x="659" 
d="M329 53q110 0 166.5 67t56.5 181q0 113 -56.5 179t-166.5 66q-109 0 -166 -66.5t-57 -178.5q0 -114 56.5 -181t166.5 -67zM329 -11q-140 0 -217.5 85.5t-77.5 226.5t78 225.5t217 84.5t217 -84.5t78 -225.5q0 -179 -117 -262l80 -126v-11h-74l-62 108q-54 -21 -122 -21z
" />
    <glyph glyph-name="R" unicode="R" horiz-adv-x="584" 
d="M298 537h-153v-224h153q69 0 106.5 29t37.5 85q0 57 -32.5 83.5t-111.5 26.5zM466 0l-180 250h-141v-250h-73v600h233q209 0 209 -172q0 -71 -39.5 -115.5t-114.5 -57.5l189 -244v-11h-83z" />
    <glyph glyph-name="S" unicode="S" horiz-adv-x="550" 
d="M288 -11q-229 1 -257 202l69 15q26 -156 190 -156q76 0 113 28t37 77q0 48 -36.5 74.5t-128.5 42.5q-117 21 -166.5 64.5t-49.5 112.5q0 75 54.5 118.5t158.5 43.5q101 0 153.5 -45.5t71.5 -132.5l-72 -15q-16 69 -50 100.5t-106 31.5q-69 0 -104 -25.5t-35 -71.5
q0 -44 36 -72t133 -47q120 -23 166.5 -65t46.5 -109q0 -80 -54.5 -125.5t-169.5 -45.5z" />
    <glyph glyph-name="T" unicode="T" horiz-adv-x="508" 
d="M16 533v67h476v-67h-202v-533h-72v533h-202z" />
    <glyph glyph-name="U" unicode="U" horiz-adv-x="627" 
d="M319 54q89 0 126 45t37 129v372h73v-375q0 -115 -60.5 -175.5t-175.5 -60.5q-118 0 -182 60t-64 176v375h72v-366q0 -180 174 -180z" />
    <glyph glyph-name="V" unicode="V" horiz-adv-x="576" 
d="M335 0h-93l-241 600h77l120 -312q46 -116 79 -224h23q37 110 81 224l119 312h75z" />
    <glyph glyph-name="W" unicode="W" horiz-adv-x="835" 
d="M340 250l-65 -250h-108l-162 600h79l72 -295q34 -138 54 -241h28q32 148 55 240l80 296h94l80 -296q23 -93 54 -240h27q12 64 53 241l73 295h76l-162 -600h-110l-65 250q-46 181 -66 283h-21q-25 -122 -66 -283z" />
    <glyph glyph-name="X" unicode="X" horiz-adv-x="553" 
d="M462 0l-183 267h-13l-178 -267h-74v11l211 292l-208 286v11h77l176 -261h16l175 261h74v-11l-209 -289l213 -289v-11h-77z" />
    <glyph glyph-name="Y" unicode="Y" horiz-adv-x="528" 
d="M300 0h-72v207l-231 382v11h77l185 -333h11l185 333h75v-11l-230 -384v-205z" />
    <glyph glyph-name="Z" unicode="Z" horiz-adv-x="560" 
d="M515 67v-67h-479v66l391 469l-5 10q-114 -12 -210 -12h-164v67h466v-65l-394 -471l4 -9q130 12 226 12h165z" />
    <glyph glyph-name="bracketleft" unicode="[" horiz-adv-x="285" 
d="M68 -186v876h191v-60h-121v-754h121v-62h-191z" />
    <glyph glyph-name="backslash" unicode="\" horiz-adv-x="309" 
d="M230 -151l-208 793h68l210 -793h-70z" />
    <glyph glyph-name="bracketright" unicode="]" horiz-adv-x="285" 
d="M26 -186v60h121v754h-121v62h191v-876h-191z" />
    <glyph glyph-name="asciicircum" unicode="^" horiz-adv-x="495" 
d="M425 250l-177 204l-177 -204l-36 30l193 241h38l194 -241z" />
    <glyph glyph-name="underscore" unicode="_" horiz-adv-x="460" 
d="M0 0h460v-60h-460v60z" />
    <glyph glyph-name="grave" unicode="`" horiz-adv-x="304" 
d="M263 524l-242 115l30 55l229 -135z" />
    <glyph glyph-name="a" unicode="a" horiz-adv-x="490" 
d="M203 47q70 0 113.5 35t43.5 89v32h-152q-104 0 -104 -79q0 -34 23.5 -55.5t75.5 -21.5zM363 0v111h-8q-18 -59 -62.5 -90t-108.5 -31q-147 0 -147 128q0 61 42 98.5t121 37.5h160v43q0 60 -26.5 90t-87.5 30q-101 0 -125 -103l-66 17q16 69 65 106.5t127 37.5
q181 0 181 -177v-298h-65z" />
    <glyph glyph-name="b" unicode="b" horiz-adv-x="535" 
d="M288 50q143 0 143 182q0 92 -35 136.5t-108 44.5q-70 0 -111.5 -44t-41.5 -120v-35q0 -73 42 -118.5t111 -45.5zM135 642v-302h6q40 136 171 136q91 0 139.5 -63t48.5 -181q0 -117 -48.5 -180t-134.5 -63q-69 0 -114.5 37.5t-62.5 100.5h-5v-127h-69v642h69z" />
    <glyph glyph-name="c" unicode="c" horiz-adv-x="511" 
d="M408 294q-14 60 -47 90t-98 30q-75 0 -116.5 -46.5t-41.5 -135.5q0 -85 42 -133t119 -48q67 0 97.5 31.5t47.5 91.5l64 -17q-36 -168 -208 -168q-110 0 -171 64t-61 179q0 113 63 178.5t166 65.5q93 0 143 -42.5t66 -125.5z" />
    <glyph glyph-name="d" unicode="d" horiz-adv-x="535" 
d="M247 51q70 0 111.5 44t41.5 118v36q0 74 -42 119t-111 45q-144 0 -144 -182q0 -92 35.5 -136t108.5 -44zM400 0v125h-6q-18 -62 -62.5 -99t-111.5 -37q-89 0 -137 62.5t-48 179.5q0 118 49 181.5t137 63.5q135 0 173 -137h6v303h68v-642h-68z" />
    <glyph glyph-name="e" unicode="e" horiz-adv-x="506" 
d="M261 419q-68 0 -108.5 -38.5t-47.5 -114.5h301q-6 153 -145 153zM265 -11q-108 0 -169 64t-61 178t62 179.5t166 65.5q100 0 153.5 -57.5t53.5 -156.5q0 -31 -2 -49h-364q5 -79 46 -122t115 -43q64 0 95 28t46 79l61 -18q-37 -148 -202 -148z" />
    <glyph glyph-name="f" unicode="f" horiz-adv-x="347" 
d="M179 496v-31h154v-59h-154v-406h-68v406h-90v59h90v32q0 73 37.5 115t110.5 42q34 0 77 -9l-4 -54q-40 7 -65 7q-88 0 -88 -102z" />
    <glyph glyph-name="g" unicode="g" horiz-adv-x="497" 
d="M233 407q-125 0 -125 -103q0 -102 126 -102q131 0 131 102q0 49 -34 76t-98 27zM243 -112q101 0 137 17.5t36 55.5q0 26 -20 41.5t-60 15.5h-171q-44 0 -67.5 -19.5t-23.5 -45.5q0 -35 36 -50t133 -15zM475 -37q0 -69 -52 -99.5t-182 -30.5q-124 0 -175 25.5t-51 75.5
q0 31 26.5 52.5t76.5 31.5v4q-52 14 -52 59q0 31 44 57l35 24q-101 34 -101 141q0 79 51.5 120.5t145.5 41.5h221v-57h-57q-33 0 -98 6l-1 -8q121 -24 121 -115q0 -69 -49.5 -105.5t-144.5 -36.5q-45 0 -78 10l-17 -25q-15 -22 -15 -34q0 -29 51 -29q27 0 81 0.5t80 0.5
q68 0 104 -28.5t36 -80.5z" />
    <glyph glyph-name="h" unicode="h" horiz-adv-x="532" 
d="M135 268v-268h-69v642h69v-297h7q19 61 64 96t110 35q77 0 116 -46.5t39 -125.5v-304h-69v289q0 57 -26.5 90.5t-84.5 33.5q-70 0 -113 -40t-43 -105z" />
    <glyph glyph-name="i" unicode="i" horiz-adv-x="223" 
d="M154 564h-85v70h85v-70zM145 0h-68v465h68v-465z" />
    <glyph glyph-name="j" unicode="j" horiz-adv-x="234" 
d="M157 -10q0 -72 -32.5 -112.5t-96.5 -40.5q-16 0 -46 5l4 61q19 -4 40 -4q63 0 63 86v479h68v-474zM165 564h-84v70h84v-70z" />
    <glyph glyph-name="k" unicode="k" horiz-adv-x="474" 
d="M140 642v-381h49l187 204h79v-11l-210 -219l230 -224v-11h-80l-204 206h-51v-206h-68v642h68z" />
    <glyph glyph-name="l" unicode="l" horiz-adv-x="212" 
d="M140 642v-642h-68v642h68z" />
    <glyph glyph-name="m" unicode="m" horiz-adv-x="868" 
d="M135 268v-268h-69v465h68v-120h8q20 62 64.5 96.5t108.5 34.5q68 0 105 -37t44 -102h10q35 139 175 139q78 0 118 -46.5t40 -125.5v-304h-69v289q0 56 -27 90t-85 34q-71 0 -113 -39.5t-42 -105.5v-268h-69v289q0 56 -27 90t-85 34q-70 0 -112.5 -40t-42.5 -105z" />
    <glyph glyph-name="n" unicode="n" horiz-adv-x="532" 
d="M135 268v-268h-69v465h68v-120h8q19 61 64.5 96t107.5 35q79 0 118 -46t39 -126v-304h-69v289q0 124 -112 124q-70 0 -112.5 -40t-42.5 -105z" />
    <glyph glyph-name="o" unicode="o" horiz-adv-x="530" 
d="M265 -11q-109 0 -169.5 65.5t-60.5 179.5q0 113 62.5 177.5t167.5 64.5t167.5 -64.5t62.5 -177.5q0 -114 -60.5 -179.5t-169.5 -65.5zM265 415q-77 0 -119 -47.5t-42 -132.5q0 -86 40.5 -135.5t119.5 -49.5t120.5 49.5t41.5 135.5q0 85 -42 132.5t-119 47.5z" />
    <glyph glyph-name="p" unicode="p" horiz-adv-x="535" 
d="M288 50q143 0 143 182q0 92 -35 136.5t-108 44.5q-70 0 -111.5 -44t-41.5 -120v-35q0 -73 42 -118.5t111 -45.5zM500 232q0 -117 -48.5 -180t-134.5 -63q-69 0 -114.5 37.5t-62.5 100.5h-5v-280h-69v618h69v-125h6q40 136 171 136q91 0 139.5 -63t48.5 -181z" />
    <glyph glyph-name="q" unicode="q" horiz-adv-x="535" 
d="M247 50q69 0 111 45t42 118v36q0 76 -41.5 120t-111.5 44q-144 0 -144 -181q0 -182 144 -182zM35 231q0 119 48.5 182t139.5 63q132 0 172 -138l5 1v126h68v-630h-68v290h-5q-18 -62 -63 -99t-114 -37q-86 0 -134.5 63t-48.5 179z" />
    <glyph glyph-name="r" unicode="r" horiz-adv-x="324" 
d="M135 0h-69v465h67v-125h6q33 130 148 130h19v-75h-22q-78 0 -113.5 -36.5t-35.5 -119.5v-239z" />
    <glyph glyph-name="s" unicode="s" horiz-adv-x="453" 
d="M241 -12q-99 0 -147.5 39.5t-65.5 116.5l64 13q13 -54 47.5 -83.5t102.5 -29.5q111 0 111 79q0 36 -30 54.5t-107 31.5q-87 15 -125 47.5t-38 87.5q0 60 44 96t127 36t124 -34.5t58 -101.5l-64 -15q-12 52 -40.5 74t-78.5 22q-103 0 -103 -74q0 -32 27.5 -52.5
t95.5 -31.5q95 -16 136.5 -48.5t41.5 -89.5q0 -64 -44.5 -100.5t-135.5 -36.5z" />
    <glyph glyph-name="t" unicode="t" horiz-adv-x="349" 
d="M97 136v270h-76v59h76v134h68v-134h158v-59h-158v-265q0 -88 79 -88q32 0 74 12l10 -61q-46 -15 -96 -15q-67 0 -101 40t-34 107z" />
    <glyph glyph-name="u" unicode="u" horiz-adv-x="532" 
d="M398 0v120h-7q-19 -60 -65 -95.5t-108 -35.5q-79 0 -118 46t-39 126v304h69v-290q0 -123 112 -123q70 0 112.5 40t42.5 105v268h69v-465h-68z" />
    <glyph glyph-name="v" unicode="v" horiz-adv-x="468" 
d="M278 0h-85l-194 465h75l69 -177q60 -158 83 -227h18q26 78 84 227l67 177h74z" />
    <glyph glyph-name="w" unicode="w" horiz-adv-x="736" 
d="M410 465l55 -180q41 -135 61 -227h18q17 71 65 230l52 177h70l-152 -465h-90l-62 206q-26 87 -53 202h-14q-22 -100 -53 -202l-61 -206h-88l-153 465h71l54 -177q48 -148 67 -230h19q26 114 60 227l54 180h80z" />
    <glyph glyph-name="x" unicode="x" horiz-adv-x="486" 
d="M387 0l-146 213h-4l-141 -213h-72v11l169 228l-168 215v11h75l145 -207h2l141 207h70v-11l-165 -222l168 -221v-11h-74z" />
    <glyph glyph-name="y" unicode="y" horiz-adv-x="476" 
d="M75 -168q-32 0 -68 6l11 63q30 -6 59 -6q46 0 74.5 21t57.5 87l-205 462h76l65 -164q81 -206 93 -240h12q40 110 88 238l62 166h73l-202 -471q-37 -86 -82.5 -124t-113.5 -38z" />
    <glyph glyph-name="z" unicode="z" horiz-adv-x="482" 
d="M307 62h131v-62h-398v62l321 345l-5 9q-111 -13 -202 -13h-105v62h385v-62l-320 -345l5 -9q124 13 188 13z" />
    <glyph glyph-name="braceleft" unicode="{" horiz-adv-x="362" 
d="M334 -181q-54 -3 -70 -3q-75 0 -113 31t-38 86q1 45 45 113t44 104q0 79 -113 79h-68v61h68q51 0 83.5 19.5t32.5 59.5q0 36 -43.5 105t-44.5 114q0 55 38 86t113 31q16 0 70 -3l-1 -59q-21 1 -57 1q-48 0 -69 -16t-21 -52q0 -31 37.5 -95t37.5 -108q0 -91 -128 -109v-9
q68 -7 98 -32t30 -74q0 -44 -39.5 -108.5t-39.5 -95.5q0 -36 21.5 -52t69.5 -16q35 0 56 1z" />
    <glyph glyph-name="bar" unicode="|" horiz-adv-x="206" 
d="M137 -176h-68v869h68v-869z" />
    <glyph glyph-name="braceright" unicode="}" horiz-adv-x="362" 
d="M94 -190q-16 0 -70 3l1 59q42 -2 56 -2q48 0 69 16t21 52q0 31 -37 95.5t-37 108.5q0 89 127 109v9q-68 6 -97.5 31t-29.5 75q0 44 39 108.5t39 95.5q0 36 -21 52t-69 16q-14 0 -56 -2l-1 59q54 3 70 3q74 0 112.5 -31t37.5 -86q0 -44 -44 -112.5t-44 -104.5
q0 -78 113 -78h68v-61h-68q-51 0 -83.5 -20t-32.5 -60q0 -36 43.5 -104.5t43.5 -113.5q1 -55 -37 -86t-113 -31z" />
    <glyph glyph-name="asciitilde" unicode="~" horiz-adv-x="522" 
d="M363 263q-41 0 -71.5 27t-45.5 60t-37 60t-49 27q-38 0 -52.5 -38.5t-11.5 -130.5h-47q-4 32 -4 64q0 167 112 167q34 0 59.5 -18t40.5 -43t28.5 -50.5t32 -43.5t42.5 -18q74 0 65 168h46q4 -29 4 -61q0 -83 -30 -126.5t-82 -43.5z" />
    <glyph glyph-name="uni00A0" unicode="&#xa0;" horiz-adv-x="178" 
 />
    <glyph glyph-name="exclamdown" unicode="&#xa1;" horiz-adv-x="235" 
d="M82 254h71v-389h-71v389zM165 371h-95v94h95v-94z" />
    <glyph glyph-name="cent" unicode="&#xa2;" horiz-adv-x="508" 
d="M232 585h62l-6 -118q81 -5 125.5 -45t59.5 -114l-65 -14q-14 58 -47 87t-98 29q-75 0 -116.5 -45.5t-41.5 -132.5q0 -82 42 -129.5t119 -47.5q67 0 98 30.5t47 88.5l64 -17q-33 -150 -186 -159l5 -122h-62l5 122q-96 8 -149 69.5t-53 164.5q0 102 55 164.5t148 70.5z" />
    <glyph glyph-name="sterling" unicode="&#xa3;" horiz-adv-x="539" 
d="M499 0h-461v62h101q13 41 13 98q0 30 -8 67h-104v57h90q-26 94 -26 154q0 80 48.5 126t142.5 46q95 0 140 -50.5t61 -142.5l-64 -13q-17 75 -47 109.5t-90 34.5q-64 0 -92.5 -32t-28.5 -84q0 -50 23 -148h233v-57h-221q5 -28 5 -50q0 -67 -25 -115h310v-62z" />
    <glyph glyph-name="yen" unicode="&#xa5;" horiz-adv-x="562" 
d="M524 178h-206v-178h-72v178h-208v52h194l-49 81h-145v54h112l-135 224v11h77l185 -333h11l185 333h75v-11l-134 -224h110v-54h-143l-48 -81h191v-52z" />
    <glyph glyph-name="brokenbar" unicode="&#xa6;" horiz-adv-x="243" 
d="M155 -176h-67v382h67v-382zM155 294h-67v399h67v-399z" />
    <glyph glyph-name="section" unicode="&#xa7;" horiz-adv-x="581" 
d="M300 -168q-116 0 -176.5 50t-80.5 149l70 17q16 -78 60.5 -118t128.5 -40q132 0 132 93q0 43 -33 66.5t-118 39.5q-140 27 -196 66t-56 103q0 70 82 120q-23 30 -23 80q0 69 48 111t144 42q103 0 152 -45.5t72 -139.5l-69 -14q-18 71 -53 106.5t-102 35.5
q-65 0 -95.5 -26t-30.5 -67q0 -43 33 -69t126 -44q132 -26 181 -63.5t49 -100.5q0 -70 -70 -115q28 -33 28 -86q0 -69 -49 -110t-154 -41zM304 146q103 -22 148 -56q34 34 34 83q0 48 -42 73.5t-160 49.5q-106 21 -150 59q-43 -35 -43 -85q0 -45 44.5 -71.5t168.5 -52.5z
" />
    <glyph glyph-name="dieresis" unicode="&#xa8;" horiz-adv-x="319" 
d="M27 638h83v-83h-83v83zM208 638h83v-83h-83v83z" />
    <glyph glyph-name="copyright" unicode="&#xa9;" horiz-adv-x="904" 
d="M452 -40q336 0 336 341q0 161 -81.5 250t-254.5 89t-254.5 -89t-81.5 -250t81 -251t255 -90zM452 697q198 0 298.5 -106t100.5 -290q0 -185 -100 -291.5t-299 -106.5q-198 0 -298.5 107t-100.5 291t100.5 290t298.5 106zM567 348q-4 55 -29 82t-84 27q-62 0 -95.5 -39.5
t-33.5 -113.5t32 -115.5t96 -41.5q110 0 115 97l62 -4q-6 -151 -176 -151q-90 0 -142.5 56t-52.5 158q0 98 53 154.5t143 56.5q87 0 128.5 -40.5t45.5 -121.5z" />
    <glyph glyph-name="ordfeminine" unicode="&#xaa;" horiz-adv-x="385" 
d="M164 365q49 0 80 27.5t31 69.5v8h-106q-77 0 -77 -54q0 -51 72 -51zM279 329v85h-5q-32 -95 -129 -95q-110 0 -110 94q0 40 31 65t91 25h118v45q0 34 -18.5 55t-58.5 21q-71 0 -95 -66l-54 16q34 98 150 98q68 0 102 -33t34 -90v-220h-56z" />
    <glyph glyph-name="guillemotleft" unicode="&#xab;" horiz-adv-x="611" 
d="M341 34h-67l-252 214v20l252 214h67v-12l-248 -210v-4l248 -210v-12zM580 34h-67l-252 214v20l252 214h67v-12l-248 -210v-4l248 -210v-12z" />
    <glyph glyph-name="registered" unicode="&#xae;" horiz-adv-x="906" 
d="M473 450h-129v-145h129q91 0 91 73q0 38 -20 55t-71 17zM580 102l-131 155h-105v-155h-64v400h200q149 0 149 -121q0 -50 -29 -81.5t-84 -39.5l137 -150v-8h-73zM452 -40q336 0 336 341q0 161 -81.5 250t-254.5 89t-254.5 -89t-81.5 -250t81 -251t255 -90zM452 -97
q-198 0 -298.5 107t-100.5 291t100.5 290t298.5 106t298.5 -106t100.5 -290q0 -185 -100 -291.5t-299 -106.5z" />
    <glyph glyph-name="macron" unicode="&#xaf;" horiz-adv-x="320" 
d="M24 613h272v-54h-272v54z" />
    <glyph glyph-name="degree" unicode="&#xb0;" horiz-adv-x="308" 
d="M280 486q0 -57 -34.5 -91.5t-91.5 -34.5q-58 0 -92 34.5t-34 91.5q0 56 34 90.5t92 34.5q57 0 91.5 -34.5t34.5 -90.5zM80 486q0 -38 19.5 -58.5t54.5 -20.5t54.5 20.5t19.5 58.5t-19.5 58t-54.5 20t-54.5 -20t-19.5 -58z" />
    <glyph glyph-name="twosuperior" unicode="&#xb2;" horiz-adv-x="368" 
d="M194 633q-88 0 -103 -93l-53 10q22 128 156 128q139 0 139 -106q0 -47 -34.5 -73t-110.5 -45q-64 -17 -88 -36.5t-26 -56.5q89 7 134 7h131v-48h-312v28q0 58 31.5 89.5t106.5 51.5q64 17 88.5 35t24.5 48q0 61 -84 61z" />
    <glyph glyph-name="threesuperior" unicode="&#xb3;" horiz-adv-x="362" 
d="M184 312q-141 0 -163 113l53 11q15 -78 112 -78q92 0 92 60q0 30 -20.5 43.5t-71.5 13.5h-58v40h57q81 0 81 57q0 60 -83 60q-82 0 -99 -73l-51 12q25 107 149 107q67 0 102 -25t35 -71q0 -67 -85 -82v-8q53 -4 76 -23t23 -56q0 -101 -149 -101z" />
    <glyph glyph-name="acute" unicode="&#xb4;" horiz-adv-x="304" 
d="M38 524l-17 35l230 134l29 -53z" />
    <glyph glyph-name="paragraph" unicode="&#xb6;" horiz-adv-x="635" 
d="M563 -163h-68v763h68v-763zM430 -163h-67v319h-91q-113 0 -175 55.5t-62 162.5q0 226 236 226h159v-763z" />
    <glyph glyph-name="periodcentered" unicode="&#xb7;" horiz-adv-x="206" 
d="M56 291h94v-94h-94v94z" />
    <glyph glyph-name="cedilla" unicode="&#xb8;" horiz-adv-x="227" 
d="M124 -168q-61 0 -101 29l22 34q38 -25 78 -25q48 0 48 32q0 28 -44 28q-21 0 -43 -6l-27 12l33 86l37 -2l-29 -73q19 8 42 8q73 0 73 -55q0 -26 -21.5 -47t-67.5 -21z" />
    <glyph glyph-name="onesuperior" unicode="&#xb9;" horiz-adv-x="296" 
d="M282 320h-258v49h112v256q-54 -28 -101 -47l-19 45l140 49h34v-303h92v-49z" />
    <glyph glyph-name="ordmasculine" unicode="&#xba;" horiz-adv-x="382" 
d="M193 323q-78 0 -121 47t-43 130q0 80 44.5 126t119.5 46q74 0 118 -46t44 -126q0 -82 -42.5 -129.5t-119.5 -47.5zM193 624q-53 0 -81 -32.5t-28 -90.5q0 -61 27 -95t81 -34q53 0 81 34.5t28 94.5q0 57 -28.5 90t-79.5 33z" />
    <glyph glyph-name="guillemotright" unicode="&#xbb;" horiz-adv-x="614" 
d="M340 27h-67v12l248 209v6l-248 209v12h67l252 -214v-20zM101 27h-67v12l248 210v4l-248 210v12h67l252 -214v-20z" />
    <glyph glyph-name="onequarter" unicode="&#xbc;" horiz-adv-x="741" 
d="M151 0h-89v6l253 258l22 -20zM563 600h89v-6l-253 -258l-22 20zM282 320h-258v49h112v256q-54 -28 -101 -47l-19 45l140 49h34v-303h92v-49zM535 60h49v176l-3 1l-163 -184l1 -1q78 8 116 8zM696 15h-58v-85h-54v85h-223v37l206 228h71v-220h58v-45z" />
    <glyph glyph-name="onehalf" unicode="&#xbd;" horiz-adv-x="729" 
d="M147 0h-89v6l253 258l22 -20zM559 600h89v-6l-253 -258l-22 20zM282 320h-258v49h112v256q-54 -28 -101 -47l-19 45l140 49h34v-303h92v-49zM550 243q-88 0 -103 -93l-53 10q22 128 156 128q139 0 139 -106q0 -47 -34.5 -73t-110.5 -45q-64 -17 -88 -36.5t-26 -56.5
q89 7 134 7h131v-48h-312v28q0 58 31.5 89.5t106.5 51.5q64 17 88.5 35t24.5 48q0 61 -84 61z" />
    <glyph glyph-name="threequarters" unicode="&#xbe;" horiz-adv-x="753" 
d="M183 0h-89v6l253 258l22 -20zM595 600h89v-6l-253 -258l-22 20zM722 15h-58v-85h-54v85h-223v37l206 228h71v-220h58v-45zM189 312q-141 0 -163 113l53 11q15 -78 112 -78q92 0 92 60q0 30 -20.5 43.5t-71.5 13.5h-58v40h57q81 0 81 57q0 60 -83 60q-82 0 -99 -73l-51 12
q25 107 149 107q67 0 102 -25t35 -71q0 -67 -85 -82v-8q53 -4 76 -23t23 -56q0 -101 -149 -101zM561 60h49v176l-3 1l-163 -184l1 -1q78 8 116 8z" />
    <glyph glyph-name="questiondown" unicode="&#xbf;" horiz-adv-x="485" 
d="M155 187q61 28 61 86v11h68v-14q0 -45 -20 -73t-68 -52q-56 -28 -77.5 -53t-21.5 -69q0 -52 32.5 -79.5t95.5 -27.5q78 0 118 43t52 127l69 -9q-30 -223 -239 -223q-97 0 -148.5 43t-51.5 123q0 65 34.5 103t95.5 64zM297 371h-95v94h95v-94z" />
    <glyph glyph-name="Agrave" unicode="&#xc0;" horiz-adv-x="577" 
d="M499 0l-70 181h-283l-69 -181h-76l241 600h94l240 -600h-77zM368 663l-261 71l19 57l253 -90zM196 312l-28 -74h239l-29 74q-43 112 -78 224h-23q-42 -125 -81 -224z" />
    <glyph glyph-name="Aacute" unicode="&#xc1;" horiz-adv-x="577" 
d="M499 0l-70 181h-283l-69 -181h-76l241 600h94l240 -600h-77zM200 663l-12 38l253 92l19 -61zM196 312l-28 -74h239l-29 74q-43 112 -78 224h-23q-42 -125 -81 -224z" />
    <glyph glyph-name="Acircumflex" unicode="&#xc2;" horiz-adv-x="577" 
d="M499 0l-70 181h-283l-69 -181h-76l241 600h94l240 -600h-77zM408 649l-119 88l-120 -88l-24 31l129 114h30l129 -114zM196 312l-28 -74h239l-29 74q-43 112 -78 224h-23q-42 -125 -81 -224z" />
    <glyph glyph-name="Atilde" unicode="&#xc3;" horiz-adv-x="577" 
d="M499 0l-70 181h-283l-69 -181h-76l241 600h94l240 -600h-77zM219 815q27 0 48.5 -16.5t33 -35.5t27 -35.5t31.5 -16.5q41 0 38 100h39q3 -24 3 -45q0 -53 -20.5 -80.5t-56.5 -27.5q-25 0 -46 16t-32.5 35.5t-27.5 35.5t-33 16q-24 0 -33 -21.5t-8 -74.5h-39q-3 24 -3 43
q0 53 21 80t58 27zM196 312l-28 -74h239l-29 74q-43 112 -78 224h-23q-42 -125 -81 -224z" />
    <glyph glyph-name="Adieresis" unicode="&#xc4;" horiz-adv-x="577" 
d="M499 0l-70 181h-283l-69 -181h-76l241 600h94l240 -600h-77zM156 749h83v-83h-83v83zM337 749h83v-83h-83v83zM196 312l-28 -74h239l-29 74q-43 112 -78 224h-23q-42 -125 -81 -224z" />
    <glyph glyph-name="Aring" unicode="&#xc5;" horiz-adv-x="577" 
d="M499 0l-70 181h-283l-69 -181h-76l241 600h94l240 -600h-77zM233 748q0 -27 15 -42t41 -15t41 15.5t15 42.5t-15 42t-41 15t-41 -15t-15 -43zM391 749q0 -45 -27.5 -72.5t-74.5 -27.5t-74.5 27t-27.5 72q0 46 27.5 73t74.5 27t74.5 -27t27.5 -72zM196 312l-28 -74h239
l-29 74q-43 112 -78 224h-23q-42 -125 -81 -224z" />
    <glyph glyph-name="AE" unicode="&#xc6;" horiz-adv-x="851" 
d="M252 312l-56 -103h197v329h-26q-53 -114 -115 -226zM393 0v150h-229l-82 -150h-74v6l332 594h457v-65h-331v-197h296v-64h-296v-209h331v-65h-404z" />
    <glyph glyph-name="Ccedilla" unicode="&#xc7;" horiz-adv-x="624" 
d="M317 -11h-7l-17 -42q19 8 42 8q73 0 73 -55q0 -26 -21 -47t-68 -21q-61 0 -101 29l22 34q38 -25 78 -25q48 0 48 32q0 28 -44 28q-21 0 -43 -6l-27 12l21 56q-114 13 -176 95.5t-62 213.5q0 143 75.5 226.5t208.5 83.5q112 0 180.5 -59.5t85.5 -163.5l-68 -14
q-36 172 -198 172q-105 0 -158.5 -65.5t-53.5 -179.5q0 -117 53 -182.5t157 -65.5q169 0 203 178l69 -14q-17 -107 -87 -167.5t-185 -60.5z" />
    <glyph glyph-name="Egrave" unicode="&#xc8;" horiz-adv-x="529" 
d="M72 0v600h404v-65h-331v-197h296v-64h-296v-209h331v-65h-404zM358 663l-261 71l19 57l253 -90z" />
    <glyph glyph-name="Eacute" unicode="&#xc9;" horiz-adv-x="529" 
d="M72 0v600h404v-65h-331v-197h296v-64h-296v-209h331v-65h-404zM189 663l-12 38l253 92l19 -61z" />
    <glyph glyph-name="Ecircumflex" unicode="&#xca;" horiz-adv-x="529" 
d="M72 0v600h404v-65h-331v-197h296v-64h-296v-209h331v-65h-404zM397 649l-119 88l-120 -88l-24 31l129 114h30l129 -114z" />
    <glyph glyph-name="Edieresis" unicode="&#xcb;" horiz-adv-x="529" 
d="M72 0v600h404v-65h-331v-197h296v-64h-296v-209h331v-65h-404zM145 749h83v-83h-83v83zM326 749h83v-83h-83v83z" />
    <glyph glyph-name="Igrave" unicode="&#xcc;" horiz-adv-x="218" 
d="M145 0h-72v600h72v-600zM189 663l-261 71l19 57l253 -90z" />
    <glyph glyph-name="Iacute" unicode="&#xcd;" horiz-adv-x="218" 
d="M145 0h-72v600h72v-600zM20 663l-12 38l253 92l19 -61z" />
    <glyph glyph-name="Icircumflex" unicode="&#xce;" horiz-adv-x="218" 
d="M145 0h-72v600h72v-600zM228 649l-119 88l-120 -88l-24 31l129 114h30l129 -114z" />
    <glyph glyph-name="Idieresis" unicode="&#xcf;" horiz-adv-x="218" 
d="M145 0h-72v600h72v-600zM-24 749h83v-83h-83v83zM157 749h83v-83h-83v83z" />
    <glyph glyph-name="Eth" unicode="&#xd0;" horiz-adv-x="666" 
d="M360 274h-180v-212h150q230 0 230 241q0 121 -57 178t-180 57h-143v-212h180v-52zM108 0v274h-81v52h81v274h225q149 0 224 -76t75 -221q0 -142 -79 -222.5t-217 -80.5h-228z" />
    <glyph glyph-name="Ntilde" unicode="&#xd1;" horiz-adv-x="635" 
d="M466 0l-199 321q-53 85 -111 211h-23q9 -126 9 -293v-239h-70v600h108l175 -282q74 -123 128 -238h20q-9 144 -9 281v239h69v-600h-97zM248 815q27 0 48.5 -16.5t33 -35.5t27 -35.5t31.5 -16.5q41 0 38 100h39q3 -24 3 -45q0 -53 -20.5 -80.5t-56.5 -27.5q-25 0 -46 16
t-32.5 35.5t-27.5 35.5t-33 16q-24 0 -33 -21.5t-8 -74.5h-39q-3 24 -3 43q0 53 21 80t58 27z" />
    <glyph glyph-name="Ograve" unicode="&#xd2;" horiz-adv-x="658" 
d="M329 -11q-140 0 -217.5 85.5t-77.5 226.5t78 225.5t217 84.5t217 -84.5t78 -225.5t-77.5 -226.5t-217.5 -85.5zM329 53q110 0 166.5 67t56.5 181q0 113 -56.5 179t-166.5 66q-109 0 -166 -66.5t-57 -178.5q0 -114 56.5 -181t166.5 -67zM409 663l-261 71l19 57l253 -90z
" />
    <glyph glyph-name="Oacute" unicode="&#xd3;" horiz-adv-x="658" 
d="M329 -11q-140 0 -217.5 85.5t-77.5 226.5t78 225.5t217 84.5t217 -84.5t78 -225.5t-77.5 -226.5t-217.5 -85.5zM329 53q110 0 166.5 67t56.5 181q0 113 -56.5 179t-166.5 66q-109 0 -166 -66.5t-57 -178.5q0 -114 56.5 -181t166.5 -67zM240 663l-12 38l253 92l19 -61z
" />
    <glyph glyph-name="Ocircumflex" unicode="&#xd4;" horiz-adv-x="658" 
d="M329 53q110 0 166.5 67t56.5 181q0 113 -56.5 179t-166.5 66q-109 0 -166 -66.5t-57 -178.5q0 -114 56.5 -181t166.5 -67zM329 -11q-140 0 -217.5 85.5t-77.5 226.5t78 225.5t217 84.5t217 -84.5t78 -225.5t-77.5 -226.5t-217.5 -85.5zM448 649l-119 88l-120 -88l-24 31
l129 114h30l129 -114z" />
    <glyph glyph-name="Otilde" unicode="&#xd5;" horiz-adv-x="658" 
d="M329 -11q-140 0 -217.5 85.5t-77.5 226.5t78 225.5t217 84.5t217 -84.5t78 -225.5t-77.5 -226.5t-217.5 -85.5zM329 53q110 0 166.5 67t56.5 181q0 113 -56.5 179t-166.5 66q-109 0 -166 -66.5t-57 -178.5q0 -114 56.5 -181t166.5 -67zM259 815q27 0 48.5 -16.5t33 -35.5
t27 -35.5t31.5 -16.5q41 0 38 100h39q3 -24 3 -45q0 -53 -20.5 -80.5t-56.5 -27.5q-25 0 -46 16t-32.5 35.5t-27.5 35.5t-33 16q-24 0 -33 -21.5t-8 -74.5h-39q-3 24 -3 43q0 53 21 80t58 27z" />
    <glyph glyph-name="Odieresis" unicode="&#xd6;" horiz-adv-x="658" 
d="M329 -11q-140 0 -217.5 85.5t-77.5 226.5t78 225.5t217 84.5t217 -84.5t78 -225.5t-77.5 -226.5t-217.5 -85.5zM329 53q110 0 166.5 67t56.5 181q0 113 -56.5 179t-166.5 66q-109 0 -166 -66.5t-57 -178.5q0 -114 56.5 -181t166.5 -67zM196 749h83v-83h-83v83zM377 749
h83v-83h-83v83z" />
    <glyph glyph-name="multiply" unicode="&#xd7;" horiz-adv-x="492" 
d="M395 109q-130 138 -150 160q-61 -67 -150 -160l-49 49q135 124 161 147q-4 4 -161 148l49 49q22 -24 70.5 -75t79.5 -84q20 22 72 76t78 83l50 -49q-115 -105 -162 -147q85 -77 162 -148z" />
    <glyph glyph-name="Oslash" unicode="&#xd8;" horiz-adv-x="655" 
d="M329 -11q-122 0 -199 68l-55 -57h-60v5l83 85q-64 82 -64 211q0 141 78 225.5t217 84.5q128 0 206 -73l59 62h57v-5l-87 -90q60 -82 60 -204q0 -141 -77.5 -226.5t-217.5 -85.5zM104 301q0 -99 42 -162l342 350q-59 59 -159 59q-110 0 -167.5 -67.5t-57.5 -179.5zM329 52
q112 0 168.5 67t56.5 182q0 91 -39 154l-339 -351q57 -52 153 -52z" />
    <glyph glyph-name="Ugrave" unicode="&#xd9;" horiz-adv-x="627" 
d="M319 54q89 0 126 45t37 129v372h73v-375q0 -115 -60.5 -175.5t-175.5 -60.5q-118 0 -182 60t-64 176v375h72v-366q0 -180 174 -180zM394 663l-261 71l19 57l253 -90z" />
    <glyph glyph-name="Uacute" unicode="&#xda;" horiz-adv-x="627" 
d="M319 54q89 0 126 45t37 129v372h73v-375q0 -115 -60.5 -175.5t-175.5 -60.5q-118 0 -182 60t-64 176v375h72v-366q0 -180 174 -180zM225 663l-12 38l253 92l19 -61z" />
    <glyph glyph-name="Ucircumflex" unicode="&#xdb;" horiz-adv-x="627" 
d="M319 54q89 0 126 45t37 129v372h73v-375q0 -115 -60.5 -175.5t-175.5 -60.5q-118 0 -182 60t-64 176v375h72v-366q0 -180 174 -180zM433 649l-119 88l-120 -88l-24 31l129 114h30l129 -114z" />
    <glyph glyph-name="Udieresis" unicode="&#xdc;" horiz-adv-x="627" 
d="M319 54q89 0 126 45t37 129v372h73v-375q0 -115 -60.5 -175.5t-175.5 -60.5q-118 0 -182 60t-64 176v375h72v-366q0 -180 174 -180zM181 749h83v-83h-83v83zM362 749h83v-83h-83v83z" />
    <glyph glyph-name="Yacute" unicode="&#xdd;" horiz-adv-x="528" 
d="M300 0h-72v207l-231 382v11h77l185 -333h11l185 333h75v-11l-230 -384v-205zM175 663l-12 38l253 92l19 -61z" />
    <glyph glyph-name="Thorn" unicode="&#xde;" horiz-adv-x="527" 
d="M73 600h72v-104h160q204 0 204 -186q0 -87 -53 -137t-151 -50h-160v-123h-72v600zM297 433h-152v-247h153q73 0 106 29.5t33 93.5q0 66 -31.5 95t-108.5 29z" />
    <glyph glyph-name="germandbls" unicode="&#xdf;" horiz-adv-x="557" 
d="M344 -10q-101 0 -159 74l32 54q44 -64 125 -64q54 0 81 31.5t27 86.5q0 61 -37.5 94t-132.5 33h-65v60h53q55 0 90 30.5t35 90.5q0 50 -29.5 81.5t-89.5 31.5q-133 0 -133 -141v-452h-69v453q0 94 52.5 146.5t149.5 52.5q91 0 138.5 -45.5t47.5 -114.5q0 -124 -126 -153
v-12q102 -9 143 -48.5t41 -113.5q0 -79 -43 -127t-131 -48z" />
    <glyph glyph-name="agrave" unicode="&#xe0;" horiz-adv-x="490" 
d="M203 47q70 0 113.5 35t43.5 89v32h-152q-104 0 -104 -79q0 -34 23.5 -55.5t75.5 -21.5zM363 0v111h-8q-18 -59 -62.5 -90t-108.5 -31q-147 0 -147 128q0 61 42 98.5t121 37.5h160v43q0 60 -26.5 90t-87.5 30q-101 0 -125 -103l-66 17q16 69 65 106.5t127 37.5
q181 0 181 -177v-298h-65zM327 524l-242 115l30 55l229 -135z" />
    <glyph glyph-name="aacute" unicode="&#xe1;" horiz-adv-x="490" 
d="M203 47q70 0 113.5 35t43.5 89v32h-152q-104 0 -104 -79q0 -34 23.5 -55.5t75.5 -21.5zM363 0v111h-8q-18 -59 -62.5 -90t-108.5 -31q-147 0 -147 128q0 61 42 98.5t121 37.5h160v43q0 60 -26.5 90t-87.5 30q-101 0 -125 -103l-66 17q16 69 65 106.5t127 37.5
q181 0 181 -177v-298h-65zM168 524l-17 35l230 134l29 -53z" />
    <glyph glyph-name="acircumflex" unicode="&#xe2;" horiz-adv-x="490" 
d="M203 47q70 0 113.5 35t43.5 89v32h-152q-104 0 -104 -79q0 -34 23.5 -55.5t75.5 -21.5zM363 0v111h-8q-18 -59 -62.5 -90t-108.5 -31q-147 0 -147 128q0 61 42 98.5t121 37.5h160v43q0 60 -26.5 90t-87.5 30q-101 0 -125 -103l-66 17q16 69 65 106.5t127 37.5
q181 0 181 -177v-298h-65zM361 523l-117 107l-118 -107l-27 29l130 138h30l130 -138z" />
    <glyph glyph-name="atilde" unicode="&#xe3;" horiz-adv-x="490" 
d="M203 47q70 0 113.5 35t43.5 89v32h-152q-104 0 -104 -79q0 -34 23.5 -55.5t75.5 -21.5zM363 0v111h-8q-18 -59 -62.5 -90t-108.5 -31q-147 0 -147 128q0 61 42 98.5t121 37.5h160v43q0 60 -26.5 90t-87.5 30q-101 0 -125 -103l-66 17q16 69 65 106.5t127 37.5
q181 0 181 -177v-298h-65zM173 695q27 0 48.5 -16.5t33 -35.5t27 -35.5t31.5 -16.5q41 0 38 100h39q3 -24 3 -45q0 -53 -20.5 -80.5t-56.5 -27.5q-25 0 -46 16t-32.5 35.5t-27.5 35.5t-33 16q-24 0 -33 -21.5t-8 -74.5h-39q-3 24 -3 43q0 53 21 80t58 27z" />
    <glyph glyph-name="adieresis" unicode="&#xe4;" horiz-adv-x="490" 
d="M203 47q70 0 113.5 35t43.5 89v32h-152q-104 0 -104 -79q0 -34 23.5 -55.5t75.5 -21.5zM363 0v111h-8q-18 -59 -62.5 -90t-108.5 -31q-147 0 -147 128q0 61 42 98.5t121 37.5h160v43q0 60 -26.5 90t-87.5 30q-101 0 -125 -103l-66 17q16 69 65 106.5t127 37.5
q181 0 181 -177v-298h-65zM111 638h83v-83h-83v83zM292 638h83v-83h-83v83z" />
    <glyph glyph-name="aring" unicode="&#xe5;" horiz-adv-x="490" 
d="M203 47q70 0 113.5 35t43.5 89v32h-152q-104 0 -104 -79q0 -34 23.5 -55.5t75.5 -21.5zM363 0v111h-8q-18 -59 -62.5 -90t-108.5 -31q-147 0 -147 128q0 61 42 98.5t121 37.5h160v43q0 60 -26.5 90t-87.5 30q-101 0 -125 -103l-66 17q16 69 65 106.5t127 37.5
q181 0 181 -177v-298h-65zM180 633q0 -31 17 -48t47 -17t46.5 17t16.5 48t-16.5 47.5t-46.5 16.5t-47 -16.5t-17 -47.5zM353 633q0 -50 -29.5 -79t-79.5 -29q-51 0 -80.5 29t-29.5 79q0 49 29.5 78.5t80.5 29.5q50 0 79.5 -29.5t29.5 -78.5z" />
    <glyph glyph-name="ae" unicode="&#xe6;" horiz-adv-x="830" 
d="M203 48q70 0 113.5 34.5t43.5 88.5v40h-151q-105 0 -105 -86q0 -34 23.5 -55.5t75.5 -21.5zM586 419q-145 0 -157 -161h302q-5 161 -145 161zM792 139q-39 -150 -202 -150q-79 0 -134 35.5t-76 100.5q-17 -67 -69.5 -101.5t-124.5 -34.5q-71 0 -110 32t-39 98
q0 59 42 95.5t121 36.5h160v46q0 60 -26.5 90t-88.5 30q-101 0 -125 -103l-65 18q15 68 64 106t123 38q137 0 166 -110q23 53 69.5 81.5t109.5 28.5q101 0 154.5 -58t53.5 -158q0 -28 -2 -44h-365q4 -80 45.5 -124t115.5 -44q64 0 95 28.5t47 80.5z" />
    <glyph glyph-name="ccedilla" unicode="&#xe7;" horiz-adv-x="519" 
d="M408 294q-14 60 -47 90t-98 30q-75 0 -116.5 -46.5t-41.5 -135.5q0 -85 42 -133t119 -48q67 0 97.5 31.5t47.5 91.5l64 -17q-36 -168 -208 -168h-14l-17 -42q19 8 42 8q73 0 73 -55q0 -26 -21.5 -47t-67.5 -21q-61 0 -101 29l22 34q38 -25 78 -25q48 0 48 32q0 28 -44 28
q-21 0 -43 -6l-27 12l22 57q-87 14 -134.5 76t-47.5 163q0 113 63 178.5t166 65.5q93 0 143 -42.5t66 -125.5z" />
    <glyph glyph-name="egrave" unicode="&#xe8;" horiz-adv-x="506" 
d="M261 419q-68 0 -108.5 -38.5t-47.5 -114.5h301q-6 153 -145 153zM265 -11q-108 0 -169 64t-61 178t62 179.5t166 65.5q100 0 153.5 -57.5t53.5 -156.5q0 -31 -2 -49h-364q5 -79 46 -122t115 -43q64 0 95 28t46 79l61 -18q-37 -148 -202 -148zM340 524l-242 115l30 55
l229 -135z" />
    <glyph glyph-name="eacute" unicode="&#xe9;" horiz-adv-x="506" 
d="M261 419q-68 0 -108.5 -38.5t-47.5 -114.5h301q-6 153 -145 153zM265 -11q-108 0 -169 64t-61 178t62 179.5t166 65.5q100 0 153.5 -57.5t53.5 -156.5q0 -31 -2 -49h-364q5 -79 46 -122t115 -43q64 0 95 28t46 79l61 -18q-37 -148 -202 -148zM181 524l-17 35l230 134
l29 -53z" />
    <glyph glyph-name="ecircumflex" unicode="&#xea;" horiz-adv-x="506" 
d="M261 419q-68 0 -108.5 -38.5t-47.5 -114.5h301q-6 153 -145 153zM265 -11q-108 0 -169 64t-61 178t62 179.5t166 65.5q100 0 153.5 -57.5t53.5 -156.5q0 -31 -2 -49h-364q5 -79 46 -122t115 -43q64 0 95 28t46 79l61 -18q-37 -148 -202 -148zM374 523l-117 107l-118 -107
l-27 29l130 138h30l130 -138z" />
    <glyph glyph-name="edieresis" unicode="&#xeb;" horiz-adv-x="506" 
d="M261 419q-68 0 -108.5 -38.5t-47.5 -114.5h301q-6 153 -145 153zM265 -11q-108 0 -169 64t-61 178t62 179.5t166 65.5q100 0 153.5 -57.5t53.5 -156.5q0 -31 -2 -49h-364q5 -79 46 -122t115 -43q64 0 95 28t46 79l61 -18q-37 -148 -202 -148zM124 638h83v-83h-83v83z
M305 638h83v-83h-83v83z" />
    <glyph glyph-name="igrave" unicode="&#xec;" horiz-adv-x="254" 
d="M161 0h-68v465h68v-465zM210 524l-242 115l30 55l229 -135z" />
    <glyph glyph-name="iacute" unicode="&#xed;" horiz-adv-x="254" 
d="M161 0h-68v465h68v-465zM50 524l-17 35l230 134l29 -53z" />
    <glyph glyph-name="icircumflex" unicode="&#xee;" horiz-adv-x="254" 
d="M161 0h-68v465h68v-465zM244 523l-117 107l-118 -107l-27 29l130 138h30l130 -138z" />
    <glyph glyph-name="idieresis" unicode="&#xef;" horiz-adv-x="254" 
d="M161 0h-68v465h68v-465zM-5 638h83v-83h-83v83zM176 638h83v-83h-83v83z" />
    <glyph glyph-name="eth" unicode="&#xf0;" horiz-adv-x="516" 
d="M257 -11q-104 0 -163 60t-59 171q0 108 55 166.5t147 58.5q116 0 166 -122l10 4q-28 119 -140 211l-140 -54l-16 41l114 45q-39 28 -88 52l23 43q70 -31 125 -71l113 44l16 -43l-87 -34q148 -129 148 -314q0 -120 -60 -189t-164 -69zM413 229q0 73 -43 117t-118 44
q-71 0 -110 -43.5t-39 -124.5q0 -83 39.5 -127.5t115.5 -44.5q72 0 113.5 49t41.5 130zM422 269q0 6 -1 9l-3 -1q0 -1 0.5 -3t0.5 -3z" />
    <glyph glyph-name="ntilde" unicode="&#xf1;" horiz-adv-x="532" 
d="M135 268v-268h-69v465h68v-120h8q19 61 64.5 96t107.5 35q79 0 118 -46t39 -126v-304h-69v289q0 124 -112 124q-70 0 -112.5 -40t-42.5 -105zM198 695q27 0 48.5 -16.5t33 -35.5t27 -35.5t31.5 -16.5q41 0 38 100h39q3 -24 3 -45q0 -53 -20.5 -80.5t-56.5 -27.5
q-25 0 -46 16t-32.5 35.5t-27.5 35.5t-33 16q-24 0 -33 -21.5t-8 -74.5h-39q-3 24 -3 43q0 53 21 80t58 27z" />
    <glyph glyph-name="ograve" unicode="&#xf2;" horiz-adv-x="530" 
d="M265 -11q-109 0 -169.5 65.5t-60.5 179.5q0 113 62.5 177.5t167.5 64.5t167.5 -64.5t62.5 -177.5q0 -114 -60.5 -179.5t-169.5 -65.5zM265 415q-77 0 -119 -47.5t-42 -132.5q0 -86 40.5 -135.5t119.5 -49.5t120.5 49.5t41.5 135.5q0 85 -42 132.5t-119 47.5zM343 524
l-242 115l30 55l229 -135z" />
    <glyph glyph-name="oacute" unicode="&#xf3;" horiz-adv-x="530" 
d="M265 -11q-109 0 -169.5 65.5t-60.5 179.5q0 113 62.5 177.5t167.5 64.5t167.5 -64.5t62.5 -177.5q0 -114 -60.5 -179.5t-169.5 -65.5zM265 415q-77 0 -119 -47.5t-42 -132.5q0 -86 40.5 -135.5t119.5 -49.5t120.5 49.5t41.5 135.5q0 85 -42 132.5t-119 47.5zM183 524
l-17 35l230 134l29 -53z" />
    <glyph glyph-name="ocircumflex" unicode="&#xf4;" horiz-adv-x="530" 
d="M265 415q-77 0 -119 -47.5t-42 -132.5q0 -86 40.5 -135.5t119.5 -49.5t120.5 49.5t41.5 135.5q0 85 -42 132.5t-119 47.5zM265 -11q-109 0 -169.5 65.5t-60.5 179.5q0 113 62.5 177.5t167.5 64.5t167.5 -64.5t62.5 -177.5q0 -114 -60.5 -179.5t-169.5 -65.5zM378 523
l-117 107l-118 -107l-27 29l130 138h30l130 -138z" />
    <glyph glyph-name="otilde" unicode="&#xf5;" horiz-adv-x="530" 
d="M265 -11q-109 0 -169.5 65.5t-60.5 179.5q0 113 62.5 177.5t167.5 64.5t167.5 -64.5t62.5 -177.5q0 -114 -60.5 -179.5t-169.5 -65.5zM265 415q-77 0 -119 -47.5t-42 -132.5q0 -86 40.5 -135.5t119.5 -49.5t120.5 49.5t41.5 135.5q0 85 -42 132.5t-119 47.5zM190 695
q27 0 48.5 -16.5t33 -35.5t27 -35.5t31.5 -16.5q41 0 38 100h39q3 -24 3 -45q0 -53 -20.5 -80.5t-56.5 -27.5q-25 0 -46 16t-32.5 35.5t-27.5 35.5t-33 16q-24 0 -33 -21.5t-8 -74.5h-39q-3 24 -3 43q0 53 21 80t58 27z" />
    <glyph glyph-name="odieresis" unicode="&#xf6;" horiz-adv-x="530" 
d="M265 -11q-109 0 -169.5 65.5t-60.5 179.5q0 113 62.5 177.5t167.5 64.5t167.5 -64.5t62.5 -177.5q0 -114 -60.5 -179.5t-169.5 -65.5zM265 415q-77 0 -119 -47.5t-42 -132.5q0 -86 40.5 -135.5t119.5 -49.5t120.5 49.5t41.5 135.5q0 85 -42 132.5t-119 47.5zM128 638h83
v-83h-83v83zM309 638h83v-83h-83v83z" />
    <glyph glyph-name="divide" unicode="&#xf7;" horiz-adv-x="494" 
d="M460 273h-426v63h426v-63zM209 508h80v-80h-80v80zM209 185h80v-80h-80v80z" />
    <glyph glyph-name="oslash" unicode="&#xf8;" horiz-adv-x="530" 
d="M265 -11q-97 0 -157 55l-41 -44h-58v6l70 71q-44 61 -44 157q0 113 62.5 177.5t167.5 64.5q96 0 156 -54l40 43h55v-6l-66 -68q45 -62 45 -157q0 -113 -62 -179t-168 -66zM265 418q-79 0 -122 -48.5t-43 -134.5q0 -67 24 -113l254 257q-44 39 -113 39zM264 47
q81 0 123.5 50t42.5 138q0 65 -25 110l-254 -258q42 -40 113 -40z" />
    <glyph glyph-name="ugrave" unicode="&#xf9;" horiz-adv-x="532" 
d="M398 0v120h-7q-19 -60 -65 -95.5t-108 -35.5q-79 0 -118 46t-39 126v304h69v-290q0 -123 112 -123q70 0 112.5 40t42.5 105v268h69v-465h-68zM347 524l-242 115l30 55l229 -135z" />
    <glyph glyph-name="uacute" unicode="&#xfa;" horiz-adv-x="532" 
d="M398 0v120h-7q-19 -60 -65 -95.5t-108 -35.5q-79 0 -118 46t-39 126v304h69v-290q0 -123 112 -123q70 0 112.5 40t42.5 105v268h69v-465h-68zM188 524l-17 35l230 134l29 -53z" />
    <glyph glyph-name="ucircumflex" unicode="&#xfb;" horiz-adv-x="532" 
d="M398 0v120h-7q-19 -60 -65 -95.5t-108 -35.5q-79 0 -118 46t-39 126v304h69v-290q0 -123 112 -123q70 0 112.5 40t42.5 105v268h69v-465h-68zM381 523l-117 107l-118 -107l-27 29l130 138h30l130 -138z" />
    <glyph glyph-name="udieresis" unicode="&#xfc;" horiz-adv-x="532" 
d="M398 0v120h-7q-19 -60 -65 -95.5t-108 -35.5q-79 0 -118 46t-39 126v304h69v-290q0 -123 112 -123q70 0 112.5 40t42.5 105v268h69v-465h-68zM131 638h83v-83h-83v83zM312 638h83v-83h-83v83z" />
    <glyph glyph-name="yacute" unicode="&#xfd;" horiz-adv-x="473" 
d="M75 -168q-32 0 -68 6l11 63q30 -6 59 -6q46 0 74.5 21t57.5 87l-205 462h76l65 -164q81 -206 93 -240h12q40 110 88 238l62 166h73l-202 -471q-37 -86 -82.5 -124t-113.5 -38zM161 524l-17 35l230 134l29 -53z" />
    <glyph glyph-name="thorn" unicode="&#xfe;" horiz-adv-x="535" 
d="M288 50q143 0 143 182q0 92 -35 136.5t-108 44.5q-70 0 -111.5 -44t-41.5 -120v-35q0 -73 42 -118.5t111 -45.5zM135 642v-302h6q40 136 171 136q91 0 139.5 -63t48.5 -181q0 -117 -48.5 -180t-134.5 -63q-69 0 -114.5 37.5t-62.5 100.5h-5v-280h-69v795h69z" />
    <glyph glyph-name="ydieresis" unicode="&#xff;" horiz-adv-x="473" 
d="M75 -168q-32 0 -68 6l11 63q30 -6 59 -6q46 0 74.5 21t57.5 87l-205 462h76l65 -164q81 -206 93 -240h12q40 110 88 238l62 166h73l-202 -471q-37 -86 -82.5 -124t-113.5 -38zM105 638h83v-83h-83v83zM286 638h83v-83h-83v83z" />
    <glyph glyph-name="Amacron" unicode="&#x100;" horiz-adv-x="577" 
d="M499 0l-70 181h-283l-69 -181h-76l241 600h94l240 -600h-77zM152 726h273v-55h-273v55zM196 312l-28 -74h239l-29 74q-43 112 -78 224h-23q-42 -125 -81 -224z" />
    <glyph glyph-name="amacron" unicode="&#x101;" horiz-adv-x="490" 
d="M203 47q70 0 113.5 35t43.5 89v32h-152q-104 0 -104 -79q0 -34 23.5 -55.5t75.5 -21.5zM363 0v111h-8q-18 -59 -62.5 -90t-108.5 -31q-147 0 -147 128q0 61 42 98.5t121 37.5h160v43q0 60 -26.5 90t-87.5 30q-101 0 -125 -103l-66 17q16 69 65 106.5t127 37.5
q181 0 181 -177v-298h-65zM108 613h272v-54h-272v54z" />
    <glyph glyph-name="Abreve" unicode="&#x102;" horiz-adv-x="577" 
d="M499 0l-70 181h-283l-69 -181h-76l241 600h94l240 -600h-77zM289 707q88 0 95 85h42q0 -69 -36.5 -103t-100.5 -34t-100.5 34t-36.5 103h42q7 -85 95 -85zM196 312l-28 -74h239l-29 74q-43 112 -78 224h-23q-42 -125 -81 -224z" />
    <glyph glyph-name="abreve" unicode="&#x103;" horiz-adv-x="490" 
d="M203 47q70 0 113.5 35t43.5 89v32h-152q-104 0 -104 -79q0 -34 23.5 -55.5t75.5 -21.5zM363 0v111h-8q-18 -59 -62.5 -90t-108.5 -31q-147 0 -147 128q0 61 42 98.5t121 37.5h160v43q0 60 -26.5 90t-87.5 30q-101 0 -125 -103l-66 17q16 69 65 106.5t127 37.5
q181 0 181 -177v-298h-65zM244 585q88 0 95 99h42q0 -76 -36 -113t-101 -37t-101 37t-36 113h42q7 -99 95 -99z" />
    <glyph glyph-name="Aogonek" unicode="&#x104;" horiz-adv-x="577" 
d="M578 -157q-33 -6 -61 -6q-109 0 -109 73q0 63 101 90h-10l-70 181h-283l-69 -181h-76l241 600h94l240 -600q-119 -23 -119 -71q0 -39 65 -39q19 0 53 8zM196 312l-28 -74h239l-29 74q-43 112 -78 224h-23q-42 -125 -81 -224z" />
    <glyph glyph-name="aogonek" unicode="&#x105;" horiz-adv-x="496" 
d="M203 47q70 0 113.5 35t43.5 89v32h-152q-104 0 -104 -79q0 -34 23.5 -55.5t75.5 -21.5zM427 -157q-33 -6 -61 -6q-109 0 -109 73q0 64 106 91v110h-8q-18 -59 -62.5 -90t-108.5 -31q-147 0 -147 128q0 61 42 98.5t121 37.5h160v43q0 60 -26.5 90t-87.5 30
q-101 0 -125 -103l-66 17q16 69 65 106.5t127 37.5q181 0 181 -177v-298h-3q-119 -23 -119 -71q0 -39 65 -39q19 0 53 8z" />
    <glyph glyph-name="Cacute" unicode="&#x106;" horiz-adv-x="623" 
d="M317 -11q-134 0 -208 84t-74 228q0 143 75.5 226.5t208.5 83.5q112 0 180.5 -59.5t85.5 -163.5l-68 -14q-36 172 -198 172q-105 0 -158.5 -65.5t-53.5 -179.5q0 -117 53 -182.5t157 -65.5q169 0 203 178l69 -14q-17 -107 -87 -167.5t-185 -60.5zM228 663l-12 38l253 92
l19 -61z" />
    <glyph glyph-name="cacute" unicode="&#x107;" horiz-adv-x="511" 
d="M408 294q-14 60 -47 90t-98 30q-75 0 -116.5 -46.5t-41.5 -135.5q0 -85 42 -133t119 -48q67 0 97.5 31.5t47.5 91.5l64 -17q-36 -168 -208 -168q-110 0 -171 64t-61 179q0 113 63 178.5t166 65.5q93 0 143 -42.5t66 -125.5zM185 524l-17 35l230 134l29 -53z" />
    <glyph glyph-name="Ccircumflex" unicode="&#x108;" horiz-adv-x="623" 
d="M317 -11q-134 0 -208 84t-74 228q0 143 75.5 226.5t208.5 83.5q112 0 180.5 -59.5t85.5 -163.5l-68 -14q-36 172 -198 172q-105 0 -158.5 -65.5t-53.5 -179.5q0 -117 53 -182.5t157 -65.5q169 0 203 178l69 -14q-17 -107 -87 -167.5t-185 -60.5zM434 649l-119 88
l-120 -88l-24 31l129 114h30l129 -114z" />
    <glyph glyph-name="ccircumflex" unicode="&#x109;" horiz-adv-x="511" 
d="M408 294q-14 60 -47 90t-98 30q-75 0 -116.5 -46.5t-41.5 -135.5q0 -85 42 -133t119 -48q67 0 97.5 31.5t47.5 91.5l64 -17q-36 -168 -208 -168q-110 0 -171 64t-61 179q0 113 63 178.5t166 65.5q93 0 143 -42.5t66 -125.5zM379 523l-117 107l-118 -107l-27 29l130 138
h30l130 -138z" />
    <glyph glyph-name="Cdotaccent" unicode="&#x10a;" horiz-adv-x="623" 
d="M317 -11q-134 0 -208 84t-74 228q0 143 75.5 226.5t208.5 83.5q112 0 180.5 -59.5t85.5 -163.5l-68 -14q-36 172 -198 172q-105 0 -158.5 -65.5t-53.5 -179.5q0 -117 53 -182.5t157 -65.5q169 0 203 178l69 -14q-17 -107 -87 -167.5t-185 -60.5zM272 769h87v-85h-87v85z
" />
    <glyph glyph-name="cdotaccent" unicode="&#x10b;" horiz-adv-x="511" 
d="M408 294q-14 60 -47 90t-98 30q-75 0 -116.5 -46.5t-41.5 -135.5q0 -85 42 -133t119 -48q67 0 97.5 31.5t47.5 91.5l64 -17q-36 -168 -208 -168q-110 0 -171 64t-61 179q0 113 63 178.5t166 65.5q93 0 143 -42.5t66 -125.5zM219 649h87v-85h-87v85z" />
    <glyph glyph-name="Ccaron" unicode="&#x10c;" horiz-adv-x="623" 
d="M317 -11q-134 0 -208 84t-74 228q0 143 75.5 226.5t208.5 83.5q112 0 180.5 -59.5t85.5 -163.5l-68 -14q-36 172 -198 172q-105 0 -158.5 -65.5t-53.5 -179.5q0 -117 53 -182.5t157 -65.5q169 0 203 178l69 -14q-17 -107 -87 -167.5t-185 -60.5zM330 653h-31l-128 114
l25 30l119 -87l120 87l24 -30z" />
    <glyph glyph-name="ccaron" unicode="&#x10d;" horiz-adv-x="511" 
d="M408 294q-14 60 -47 90t-98 30q-75 0 -116.5 -46.5t-41.5 -135.5q0 -85 42 -133t119 -48q67 0 97.5 31.5t47.5 91.5l64 -17q-36 -168 -208 -168q-110 0 -171 64t-61 179q0 113 63 178.5t166 65.5q93 0 143 -42.5t66 -125.5zM276 530h-31l-129 138l28 28l117 -106l117 106
l28 -28z" />
    <glyph glyph-name="Dcaron" unicode="&#x10e;" horiz-adv-x="631" 
d="M288 538h-143v-476h150q230 0 230 241q0 121 -57 178t-180 57zM73 0v600h225q149 0 224 -76t75 -221q0 -142 -79 -222.5t-217 -80.5h-228zM329 653h-31l-128 114l25 30l119 -87l120 87l24 -30z" />
    <glyph glyph-name="dcaron" unicode="&#x10f;" horiz-adv-x="600" 
d="M247 51q70 0 111.5 44t41.5 118v36q0 74 -42 119t-111 45q-144 0 -144 -182q0 -92 35.5 -136t108.5 -44zM400 0v125h-6q-18 -62 -62.5 -99t-111.5 -37q-89 0 -137 62.5t-48 179.5q0 118 49 181.5t137 63.5q135 0 173 -137h6v303h68v-642h-68zM542 641h60l-27 -251h-45z
" />
    <glyph glyph-name="Dcroat" unicode="&#x110;" horiz-adv-x="666" 
d="M360 274h-180v-212h150q230 0 230 241q0 121 -57 178t-180 57h-143v-212h180v-52zM108 0v274h-81v52h81v274h225q149 0 224 -76t75 -221q0 -142 -79 -222.5t-217 -80.5h-228z" />
    <glyph glyph-name="dcroat" unicode="&#x111;" horiz-adv-x="548" 
d="M247 51q70 0 111.5 44t41.5 118v36q0 74 -42 119t-111 45q-144 0 -144 -182q0 -92 35.5 -136t108.5 -44zM400 0v125h-6q-18 -62 -62.5 -99t-111.5 -37q-89 0 -137 62.5t-48 179.5q0 118 49 181.5t137 63.5q135 0 173 -137h6v196h-151v47h151v60h68v-60h62v-47h-62v-535
h-68z" />
    <glyph glyph-name="Emacron" unicode="&#x112;" horiz-adv-x="529" 
d="M72 0v600h404v-65h-331v-197h296v-64h-296v-209h331v-65h-404zM141 726h273v-55h-273v55z" />
    <glyph glyph-name="emacron" unicode="&#x113;" horiz-adv-x="506" 
d="M261 419q-68 0 -108.5 -38.5t-47.5 -114.5h301q-6 153 -145 153zM265 -11q-108 0 -169 64t-61 178t62 179.5t166 65.5q100 0 153.5 -57.5t53.5 -156.5q0 -31 -2 -49h-364q5 -79 46 -122t115 -43q64 0 95 28t46 79l61 -18q-37 -148 -202 -148zM121 613h272v-54h-272v54z
" />
    <glyph glyph-name="Ebreve" unicode="&#x114;" horiz-adv-x="529" 
d="M72 0v600h404v-65h-331v-197h296v-64h-296v-209h331v-65h-404zM278 707q88 0 95 85h42q0 -69 -36.5 -103t-100.5 -34t-100.5 34t-36.5 103h42q7 -85 95 -85z" />
    <glyph glyph-name="ebreve" unicode="&#x115;" horiz-adv-x="506" 
d="M261 419q-68 0 -108.5 -38.5t-47.5 -114.5h301q-6 153 -145 153zM265 -11q-108 0 -169 64t-61 178t62 179.5t166 65.5q100 0 153.5 -57.5t53.5 -156.5q0 -31 -2 -49h-364q5 -79 46 -122t115 -43q64 0 95 28t46 79l61 -18q-37 -148 -202 -148zM257 585q88 0 95 99h42
q0 -76 -36 -113t-101 -37t-101 37t-36 113h42q7 -99 95 -99z" />
    <glyph glyph-name="Edotaccent" unicode="&#x116;" horiz-adv-x="529" 
d="M72 0v600h404v-65h-331v-197h296v-64h-296v-209h331v-65h-404zM235 769h87v-85h-87v85z" />
    <glyph glyph-name="edotaccent" unicode="&#x117;" horiz-adv-x="506" 
d="M261 419q-68 0 -108.5 -38.5t-47.5 -114.5h301q-6 153 -145 153zM265 -11q-108 0 -169 64t-61 178t62 179.5t166 65.5q100 0 153.5 -57.5t53.5 -156.5q0 -31 -2 -49h-364q5 -79 46 -122t115 -43q64 0 95 28t46 79l61 -18q-37 -148 -202 -148zM213 649h87v-85h-87v85z" />
    <glyph glyph-name="Eogonek" unicode="&#x118;" horiz-adv-x="529" 
d="M478 -157q-33 -6 -61 -6q-109 0 -109 73q0 63 101 90h-337v600h404v-65h-331v-197h296v-64h-296v-209h331v-65q-119 -23 -119 -71q0 -39 65 -39q19 0 53 8z" />
    <glyph glyph-name="eogonek" unicode="&#x119;" horiz-adv-x="506" 
d="M261 419q-68 0 -108.5 -38.5t-47.5 -114.5h301q-6 153 -145 153zM265 -11q-108 0 -169 64t-61 178t62 179.5t166 65.5q100 0 153.5 -57.5t53.5 -156.5q0 -31 -2 -49h-364q5 -79 46 -122t115 -43q64 0 95 28t46 79l60 -18l1 1v-1q-1 -3 -2.5 -9.5t-2.5 -9.5
q-22 -68 -84 -112q-58 -40 -58 -85q0 -46 72 -46q26 0 54 7l3 -58q-37 -5 -60 -5q-61 0 -89.5 22t-28.5 57q0 53 75 102q-38 -11 -81 -11z" />
    <glyph glyph-name="Ecaron" unicode="&#x11a;" horiz-adv-x="529" 
d="M72 0v600h404v-65h-331v-197h296v-64h-296v-209h331v-65h-404zM293 653h-31l-128 114l25 30l119 -87l120 87l24 -30z" />
    <glyph glyph-name="ecaron" unicode="&#x11b;" horiz-adv-x="506" 
d="M261 419q-68 0 -108.5 -38.5t-47.5 -114.5h301q-6 153 -145 153zM265 -11q-108 0 -169 64t-61 178t62 179.5t166 65.5q100 0 153.5 -57.5t53.5 -156.5q0 -31 -2 -49h-364q5 -79 46 -122t115 -43q64 0 95 28t46 79l61 -18q-37 -148 -202 -148zM272 530h-31l-129 138l28 28
l117 -106l117 106l28 -28z" />
    <glyph glyph-name="Gcircumflex" unicode="&#x11c;" horiz-adv-x="641" 
d="M304 -10q-127 0 -200 78t-73 225t73.5 232.5t213.5 85.5q113 0 179.5 -57t85.5 -162l-68 -15q-37 169 -196 169q-215 0 -215 -253q0 -240 219 -240q198 0 198 176v-2v11h-200v63h269v-301h-68v137h-8q-21 -66 -73 -106.5t-137 -40.5zM435 649l-119 88l-120 -88l-24 31
l129 114h30l129 -114z" />
    <glyph glyph-name="gcircumflex" unicode="&#x11d;" horiz-adv-x="497" 
d="M233 407q-125 0 -125 -103q0 -102 126 -102q131 0 131 102q0 49 -34 76t-98 27zM243 -112q101 0 137 17.5t36 55.5q0 26 -20 41.5t-60 15.5h-171q-44 0 -67.5 -19.5t-23.5 -45.5q0 -35 36 -50t133 -15zM475 -37q0 -69 -52 -99.5t-182 -30.5q-124 0 -175 25.5t-51 75.5
q0 31 26.5 52.5t76.5 31.5v4q-52 14 -52 59q0 31 44 57l35 24q-101 34 -101 141q0 79 51.5 120.5t145.5 41.5h221v-57h-57q-33 0 -98 6l-1 -8q121 -24 121 -115q0 -69 -49.5 -105.5t-144.5 -36.5q-45 0 -78 10l-17 -25q-15 -22 -15 -34q0 -29 51 -29q27 0 81 0.5t80 0.5
q68 0 104 -28.5t36 -80.5zM360 523l-117 107l-118 -107l-27 29l130 138h30l130 -138z" />
    <glyph glyph-name="Gbreve" unicode="&#x11e;" horiz-adv-x="641" 
d="M304 -10q-127 0 -200 78t-73 225t73.5 232.5t213.5 85.5q113 0 179.5 -57t85.5 -162l-68 -15q-37 169 -196 169q-215 0 -215 -253q0 -240 219 -240q198 0 198 176v-2v11h-200v63h269v-301h-68v137h-8q-21 -66 -73 -106.5t-137 -40.5zM316 707q88 0 95 85h42
q0 -69 -36.5 -103t-100.5 -34t-100.5 34t-36.5 103h42q7 -85 95 -85z" />
    <glyph glyph-name="gbreve" unicode="&#x11f;" horiz-adv-x="497" 
d="M233 407q-125 0 -125 -103q0 -102 126 -102q131 0 131 102q0 49 -34 76t-98 27zM243 -112q101 0 137 17.5t36 55.5q0 26 -20 41.5t-60 15.5h-171q-44 0 -67.5 -19.5t-23.5 -45.5q0 -35 36 -50t133 -15zM475 -37q0 -69 -52 -99.5t-182 -30.5q-124 0 -175 25.5t-51 75.5
q0 31 26.5 52.5t76.5 31.5v4q-52 14 -52 59q0 31 44 57l35 24q-101 34 -101 141q0 79 51.5 120.5t145.5 41.5h221v-57h-57q-33 0 -98 6l-1 -8q121 -24 121 -115q0 -69 -49.5 -105.5t-144.5 -36.5q-45 0 -78 10l-17 -25q-15 -22 -15 -34q0 -29 51 -29q27 0 81 0.5t80 0.5
q68 0 104 -28.5t36 -80.5zM243 585q88 0 95 99h42q0 -76 -36 -113t-101 -37t-101 37t-36 113h42q7 -99 95 -99z" />
    <glyph glyph-name="Gdotaccent" unicode="&#x120;" horiz-adv-x="641" 
d="M304 -10q-127 0 -200 78t-73 225t73.5 232.5t213.5 85.5q113 0 179.5 -57t85.5 -162l-68 -15q-37 169 -196 169q-215 0 -215 -253q0 -240 219 -240q198 0 198 176v-2v11h-200v63h269v-301h-68v137h-8q-21 -66 -73 -106.5t-137 -40.5zM272 769h87v-85h-87v85z" />
    <glyph glyph-name="gdotaccent" unicode="&#x121;" horiz-adv-x="497" 
d="M233 407q-125 0 -125 -103q0 -102 126 -102q131 0 131 102q0 49 -34 76t-98 27zM243 -112q101 0 137 17.5t36 55.5q0 26 -20 41.5t-60 15.5h-171q-44 0 -67.5 -19.5t-23.5 -45.5q0 -35 36 -50t133 -15zM475 -37q0 -69 -52 -99.5t-182 -30.5q-124 0 -175 25.5t-51 75.5
q0 31 26.5 52.5t76.5 31.5v4q-52 14 -52 59q0 31 44 57l35 24q-101 34 -101 141q0 79 51.5 120.5t145.5 41.5h221v-57h-57q-33 0 -98 6l-1 -8q121 -24 121 -115q0 -69 -49.5 -105.5t-144.5 -36.5q-45 0 -78 10l-17 -25q-15 -22 -15 -34q0 -29 51 -29q27 0 81 0.5t80 0.5
q68 0 104 -28.5t36 -80.5zM200 649h87v-85h-87v85z" />
    <glyph glyph-name="uni0122" unicode="&#x122;" horiz-adv-x="641" 
d="M304 -10q-127 0 -200 78t-73 225t73.5 232.5t213.5 85.5q113 0 179.5 -57t85.5 -162l-68 -15q-37 169 -196 169q-215 0 -215 -253q0 -240 219 -240q198 0 198 176v-2v11h-200v63h269v-301h-68v137h-8q-21 -66 -73 -106.5t-137 -40.5zM307 -57h61l-59 -150h-46v8z" />
    <glyph glyph-name="uni0123" unicode="&#x123;" horiz-adv-x="497" 
d="M263 533h-61l59 150h47v-9zM233 407q-125 0 -125 -103q0 -102 126 -102q131 0 131 102q0 49 -34 76t-98 27zM243 -112q101 0 137 17.5t36 55.5q0 26 -20 41.5t-60 15.5h-171q-44 0 -67.5 -19.5t-23.5 -45.5q0 -35 36 -50t133 -15zM475 -37q0 -69 -52 -99.5t-182 -30.5
q-124 0 -175 25.5t-51 75.5q0 31 26.5 52.5t76.5 31.5v4q-52 14 -52 59q0 31 44 57l35 24q-101 34 -101 141q0 79 51.5 120.5t145.5 41.5h221v-57h-57q-33 0 -98 6l-1 -8q121 -24 121 -115q0 -69 -49.5 -105.5t-144.5 -36.5q-45 0 -78 10l-17 -25q-15 -22 -15 -34
q0 -29 51 -29q27 0 81 0.5t80 0.5q68 0 104 -28.5t36 -80.5z" />
    <glyph glyph-name="Hcircumflex" unicode="&#x124;" horiz-adv-x="637" 
d="M564 0h-72v267h-347v-267h-72v600h72v-268h347v268h72v-600zM437 649l-119 88l-120 -88l-24 31l129 114h30l129 -114z" />
    <glyph glyph-name="hcircumflex" unicode="&#x125;" horiz-adv-x="532" 
d="M135 268v-268h-69v642h69v-297h7q19 61 64 96t110 35q77 0 116 -46.5t39 -125.5v-304h-69v289q0 57 -26.5 90.5t-84.5 33.5q-70 0 -113 -40t-43 -105zM222 654l-119 88l-120 -88l-24 31l129 114h30l129 -114z" />
    <glyph glyph-name="Hbar" unicode="&#x126;" horiz-adv-x="676" 
d="M511 316v114h-346v-114h346zM584 0h-73v252h-346v-252h-73v430h-72v55h72v115h73v-115h346v115h73v-115h72v-55h-72v-430z" />
    <glyph glyph-name="hbar" unicode="&#x127;" horiz-adv-x="543" 
d="M146 268v-268h-69v534h-59v48h59v60h69v-60h157v-48h-157v-189h7q19 61 64 96t110 35q77 0 116 -46.5t39 -125.5v-304h-69v289q0 57 -26.5 90.5t-84.5 33.5q-70 0 -113 -40t-43 -105z" />
    <glyph glyph-name="Itilde" unicode="&#x128;" horiz-adv-x="218" 
d="M145 0h-72v600h72v-600zM39 815q27 0 48.5 -16.5t33 -35.5t27 -35.5t31.5 -16.5q41 0 38 100h39q3 -24 3 -45q0 -53 -20.5 -80.5t-56.5 -27.5q-25 0 -46 16t-32.5 35.5t-27.5 35.5t-33 16q-24 0 -33 -21.5t-8 -74.5h-39q-3 24 -3 43q0 53 21 80t58 27z" />
    <glyph glyph-name="itilde" unicode="&#x129;" horiz-adv-x="254" 
d="M161 0h-68v465h68v-465zM57 695q27 0 48.5 -16.5t33 -35.5t27 -35.5t31.5 -16.5q41 0 38 100h39q3 -24 3 -45q0 -53 -20.5 -80.5t-56.5 -27.5q-25 0 -46 16t-32.5 35.5t-27.5 35.5t-33 16q-24 0 -33 -21.5t-8 -74.5h-39q-3 24 -3 43q0 53 21 80t58 27z" />
    <glyph glyph-name="Imacron" unicode="&#x12a;" horiz-adv-x="218" 
d="M145 0h-72v600h72v-600zM-28 726h273v-55h-273v55z" />
    <glyph glyph-name="imacron" unicode="&#x12b;" horiz-adv-x="254" 
d="M161 0h-68v465h68v-465zM-9 613h272v-54h-272v54z" />
    <glyph glyph-name="Ibreve" unicode="&#x12c;" horiz-adv-x="218" 
d="M145 0h-72v600h72v-600zM109 707q88 0 95 85h42q0 -69 -36.5 -103t-100.5 -34t-100.5 34t-36.5 103h42q7 -85 95 -85z" />
    <glyph glyph-name="ibreve" unicode="&#x12d;" horiz-adv-x="254" 
d="M161 0h-68v465h68v-465zM127 585q88 0 95 99h42q0 -76 -36 -113t-101 -37t-101 37t-36 113h42q7 -99 95 -99z" />
    <glyph glyph-name="Iogonek" unicode="&#x12e;" horiz-adv-x="218" 
d="M145 0q-119 -23 -119 -71q0 -39 65 -39q19 0 53 8l3 -55q-33 -6 -61 -6q-109 0 -109 73q0 63 101 90h-5v600h72v-600z" />
    <glyph glyph-name="iogonek" unicode="&#x12f;" horiz-adv-x="223" 
d="M154 564h-85v70h85v-70zM87 -163q-109 0 -109 73q0 63 101 90h-2v465h68v-464l1 -1q-119 -23 -119 -71q0 -39 65 -39q19 0 53 8l3 -55q-33 -6 -61 -6z" />
    <glyph glyph-name="Idotaccent" unicode="&#x130;" horiz-adv-x="218" 
d="M145 0h-72v600h72v-600zM66 769h87v-85h-87v85z" />
    <glyph glyph-name="dotlessi" unicode="&#x131;" horiz-adv-x="254" 
d="M161 0h-68v465h68v-465z" />
    <glyph glyph-name="IJ" unicode="&#x132;" horiz-adv-x="522" 
d="M145 0h-72v600h72v-600zM378 151v449h72v-448q0 -160 -145 -160q-38 0 -74 7l4 64q33 -6 62 -6q81 0 81 94z" />
    <glyph glyph-name="ij" unicode="&#x133;" horiz-adv-x="457" 
d="M154 564h-85v70h85v-70zM145 0h-68v465h68v-465zM380 -10q0 -72 -32.5 -112.5t-96.5 -40.5q-16 0 -46 5l4 61q19 -4 40 -4q63 0 63 86v479h68v-474zM388 564h-84v70h84v-70z" />
    <glyph glyph-name="Jcircumflex" unicode="&#x134;" horiz-adv-x="304" 
d="M160 151v449h72v-448q0 -160 -145 -160q-38 0 -74 7l4 64q33 -6 62 -6q81 0 81 94zM320 649l-119 88l-120 -88l-24 31l129 114h30l129 -114z" />
    <glyph glyph-name="jcircumflex" unicode="&#x135;" horiz-adv-x="236" 
d="M157 -13q0 -72 -32.5 -112.5t-96.5 -40.5q-22 0 -46 4l4 62q28 -4 40 -4q63 0 63 86v482h68v-477zM222 538l-99 90l-100 -90l-27 27l111 121h31l110 -121z" />
    <glyph glyph-name="uni0136" unicode="&#x136;" horiz-adv-x="557" 
d="M471 0l-275 254h-51v-254h-72v600h72v-284h48l265 284h82v-11l-292 -299l308 -279v-11h-85zM285 -57h61l-59 -150h-46v8z" />
    <glyph glyph-name="uni0137" unicode="&#x137;" horiz-adv-x="474" 
d="M140 642v-381h49l187 204h79v-11l-210 -219l230 -224v-11h-80l-204 206h-51v-206h-68v642h68zM235 -57h61l-59 -150h-46v8z" />
    <glyph glyph-name="kgreenlandic" unicode="&#x138;" horiz-adv-x="474" 
d="M395 0l-204 206h-51v-206h-68v465h68v-204h49l187 204h79v-11l-210 -219l230 -224v-11h-80z" />
    <glyph glyph-name="Lacute" unicode="&#x139;" horiz-adv-x="456" 
d="M104 663l-12 38l253 92l19 -61zM145 600v-534h289v-66h-361v600h72z" />
    <glyph glyph-name="lacute" unicode="&#x13a;" horiz-adv-x="212" 
d="M140 642v-642h-68v642h68zM30 675l-12 38l253 92l19 -61z" />
    <glyph glyph-name="uni013B" unicode="&#x13b;" horiz-adv-x="456" 
d="M145 600v-534h289v-66h-361v600h72zM254 -57h61l-59 -150h-46v8z" />
    <glyph glyph-name="uni013C" unicode="&#x13c;" horiz-adv-x="212" 
d="M140 642v-642h-68v642h68zM93 -57h61l-59 -150h-46v8z" />
    <glyph glyph-name="Lcaron" unicode="&#x13d;" horiz-adv-x="456" 
d="M359 606h60l-27 -251h-45zM145 600v-534h289v-66h-361v600h72z" />
    <glyph glyph-name="lcaron" unicode="&#x13e;" horiz-adv-x="270" 
d="M140 642v-642h-68v642h68zM209 641h60l-27 -251h-45z" />
    <glyph glyph-name="Ldot" unicode="&#x13f;" horiz-adv-x="456" 
d="M330 378h86v-84h-86v84zM145 600v-534h289v-66h-361v600h72z" />
    <glyph glyph-name="ldot" unicode="&#x140;" horiz-adv-x="320" 
d="M140 642v-642h-68v642h68zM212 294h87v-85h-87v85z" />
    <glyph glyph-name="Lslash" unicode="&#x141;" horiz-adv-x="470" 
d="M159 600v-280l168 87l-1 -54l-167 -86v-201h289v-66h-361v230l-68 -35v53l68 35v317h72z" />
    <glyph glyph-name="lslash" unicode="&#x142;" horiz-adv-x="253" 
d="M159 642v-320l85 47v-54l-85 -47v-268h-68v231l-82 -45v54l82 45v357h68z" />
    <glyph glyph-name="Nacute" unicode="&#x143;" horiz-adv-x="635" 
d="M466 0l-199 321q-53 85 -111 211h-23q9 -126 9 -293v-239h-70v600h108l175 -282q74 -123 128 -238h20q-9 144 -9 281v239h69v-600h-97zM229 663l-12 38l253 92l19 -61z" />
    <glyph glyph-name="nacute" unicode="&#x144;" horiz-adv-x="532" 
d="M135 268v-268h-69v465h68v-120h8q19 61 64.5 96t107.5 35q79 0 118 -46t39 -126v-304h-69v289q0 124 -112 124q-70 0 -112.5 -40t-42.5 -105zM193 524l-17 35l230 134l29 -53z" />
    <glyph glyph-name="uni0145" unicode="&#x145;" horiz-adv-x="635" 
d="M466 0l-199 321q-53 85 -111 211h-23q9 -126 9 -293v-239h-70v600h108l175 -282q74 -123 128 -238h20q-9 144 -9 281v239h69v-600h-97zM305 -57h61l-59 -150h-46v8z" />
    <glyph glyph-name="uni0146" unicode="&#x146;" horiz-adv-x="532" 
d="M135 268v-268h-69v465h68v-120h8q19 61 64.5 96t107.5 35q79 0 118 -46t39 -126v-304h-69v289q0 124 -112 124q-70 0 -112.5 -40t-42.5 -105zM256 -57h61l-59 -150h-46v8z" />
    <glyph glyph-name="Ncaron" unicode="&#x147;" horiz-adv-x="635" 
d="M466 0l-199 321q-53 85 -111 211h-23q9 -126 9 -293v-239h-70v600h108l175 -282q74 -123 128 -238h20q-9 144 -9 281v239h69v-600h-97zM333 653h-31l-128 114l25 30l119 -87l120 87l24 -30z" />
    <glyph glyph-name="ncaron" unicode="&#x148;" horiz-adv-x="532" 
d="M135 268v-268h-69v465h68v-120h8q19 61 64.5 96t107.5 35q79 0 118 -46t39 -126v-304h-69v289q0 124 -112 124q-70 0 -112.5 -40t-42.5 -105zM284 530h-31l-129 138l28 28l117 -106l117 106l28 -28z" />
    <glyph glyph-name="napostrophe" unicode="&#x149;" horiz-adv-x="664" 
d="M80 600h74l-81 -268h-40v6zM234 268v-268h-69v465h68v-120h8q19 61 64.5 96t107.5 35q79 0 118 -46t39 -126v-304h-69v289q0 124 -112 124q-70 0 -112.5 -40t-42.5 -105z" />
    <glyph glyph-name="Eng" unicode="&#x14a;" horiz-adv-x="635" 
d="M73 0v600h107l191 -295q49 -76 117 -208l15 1q-9 139 -9 265v237h69v-607q0 -156 -145 -156q-38 0 -74 7l4 61q34 -6 64 -6q81 0 81 90v5l-218 327q-67 101 -120 209h-22q9 -149 9 -291v-239h-69z" />
    <glyph glyph-name="eng" unicode="&#x14b;" horiz-adv-x="532" 
d="M402 -15v304q0 125 -112 125q-70 0 -112.5 -40t-42.5 -106v-268h-69v465h68v-120h8q19 61 64.5 96t107.5 35q79 0 118 -46t39 -126v-314q0 -72 -32.5 -112.5t-96.5 -40.5q-18 0 -46 5l4 61q26 -4 40 -4q62 0 62 86z" />
    <glyph glyph-name="Omacron" unicode="&#x14c;" horiz-adv-x="658" 
d="M329 -11q-140 0 -217.5 85.5t-77.5 226.5t78 225.5t217 84.5t217 -84.5t78 -225.5t-77.5 -226.5t-217.5 -85.5zM329 53q110 0 166.5 67t56.5 181q0 113 -56.5 179t-166.5 66q-109 0 -166 -66.5t-57 -178.5q0 -114 56.5 -181t166.5 -67zM193 726h273v-55h-273v55z" />
    <glyph glyph-name="omacron" unicode="&#x14d;" horiz-adv-x="530" 
d="M265 -11q-109 0 -169.5 65.5t-60.5 179.5q0 113 62.5 177.5t167.5 64.5t167.5 -64.5t62.5 -177.5q0 -114 -60.5 -179.5t-169.5 -65.5zM265 415q-77 0 -119 -47.5t-42 -132.5q0 -86 40.5 -135.5t119.5 -49.5t120.5 49.5t41.5 135.5q0 85 -42 132.5t-119 47.5zM125 613h272
v-54h-272v54z" />
    <glyph glyph-name="Obreve" unicode="&#x14e;" horiz-adv-x="658" 
d="M329 -11q-140 0 -217.5 85.5t-77.5 226.5t78 225.5t217 84.5t217 -84.5t78 -225.5t-77.5 -226.5t-217.5 -85.5zM329 53q110 0 166.5 67t56.5 181q0 113 -56.5 179t-166.5 66q-109 0 -166 -66.5t-57 -178.5q0 -114 56.5 -181t166.5 -67zM329 707q88 0 95 85h42
q0 -69 -36.5 -103t-100.5 -34t-100.5 34t-36.5 103h42q7 -85 95 -85z" />
    <glyph glyph-name="obreve" unicode="&#x14f;" horiz-adv-x="530" 
d="M265 -11q-109 0 -169.5 65.5t-60.5 179.5q0 113 62.5 177.5t167.5 64.5t167.5 -64.5t62.5 -177.5q0 -114 -60.5 -179.5t-169.5 -65.5zM265 415q-77 0 -119 -47.5t-42 -132.5q0 -86 40.5 -135.5t119.5 -49.5t120.5 49.5t41.5 135.5q0 85 -42 132.5t-119 47.5zM261 585
q88 0 95 99h42q0 -76 -36 -113t-101 -37t-101 37t-36 113h42q7 -99 95 -99z" />
    <glyph glyph-name="Ohungarumlaut" unicode="&#x150;" horiz-adv-x="658" 
d="M329 -11q-140 0 -217.5 85.5t-77.5 226.5t78 225.5t217 84.5t217 -84.5t78 -225.5t-77.5 -226.5t-217.5 -85.5zM329 53q110 0 166.5 67t56.5 181q0 113 -56.5 179t-166.5 66q-109 0 -166 -66.5t-57 -178.5q0 -114 56.5 -181t166.5 -67zM255 644l-34 21l104 155l52 -36z
M389 644l-32 24l110 151l51 -38z" />
    <glyph glyph-name="ohungarumlaut" unicode="&#x151;" horiz-adv-x="530" 
d="M265 -11q-109 0 -169.5 65.5t-60.5 179.5q0 113 62.5 177.5t167.5 64.5t167.5 -64.5t62.5 -177.5q0 -114 -60.5 -179.5t-169.5 -65.5zM265 415q-77 0 -119 -47.5t-42 -132.5q0 -86 40.5 -135.5t119.5 -49.5t120.5 49.5t41.5 135.5q0 85 -42 132.5t-119 47.5zM186 523
l-34 21l90 162l52 -32zM316 524l-33 23l98 158l51 -34z" />
    <glyph glyph-name="OE" unicode="&#x152;" horiz-adv-x="872" 
d="M332 64h83v471h-83q-111 0 -168.5 -62.5t-57.5 -171.5q0 -110 57.5 -173.5t168.5 -63.5zM332 0q-141 0 -219.5 81.5t-78.5 219.5q0 137 79 218t219 81h487v-65h-331v-197h296v-64h-296v-209h331v-65h-487z" />
    <glyph glyph-name="oe" unicode="&#x153;" horiz-adv-x="897" 
d="M265 415q-77 0 -119 -47.5t-42 -132.5q0 -86 40.5 -135.5t119.5 -49.5t120.5 49.5t41.5 135.5q0 85 -42 132.5t-119 47.5zM652 419q-143 0 -157 -158h302q-5 158 -145 158zM662 -11q-80 0 -131.5 41.5t-68.5 119.5h-5q-17 -77 -67.5 -119t-128.5 -42q-108 0 -167 65.5
t-59 179.5q0 113 61.5 177.5t164.5 64.5q75 0 127 -42.5t69 -119.5h6q18 77 69 119.5t127 42.5q98 0 150 -58t52 -156q0 -28 -2 -44h-365q4 -82 45 -126t116 -44q64 0 95 28.5t47 80.5l61 -18q-37 -150 -196 -150z" />
    <glyph glyph-name="Racute" unicode="&#x154;" horiz-adv-x="584" 
d="M298 537h-153v-224h153q69 0 106.5 29t37.5 85q0 57 -32.5 83.5t-111.5 26.5zM466 0l-180 250h-141v-250h-73v600h233q209 0 209 -172q0 -71 -39.5 -115.5t-114.5 -57.5l189 -244v-11h-83zM194 663l-12 38l253 92l19 -61z" />
    <glyph glyph-name="racute" unicode="&#x155;" horiz-adv-x="324" 
d="M135 0h-69v465h67v-125h6q33 130 148 130h19v-75h-22q-78 0 -113.5 -36.5t-35.5 -119.5v-239zM109 524l-17 35l230 134l29 -53z" />
    <glyph glyph-name="uni0156" unicode="&#x156;" horiz-adv-x="584" 
d="M287 -57h61l-59 -150h-46v8zM298 537h-153v-224h153q69 0 106.5 29t37.5 85q0 57 -32.5 83.5t-111.5 26.5zM466 0l-180 250h-141v-250h-73v600h233q209 0 209 -172q0 -71 -39.5 -115.5t-114.5 -57.5l189 -244v-11h-83z" />
    <glyph glyph-name="uni0157" unicode="&#x157;" horiz-adv-x="324" 
d="M135 0h-69v465h67v-125h6q33 130 148 130h19v-75h-22q-78 0 -113.5 -36.5t-35.5 -119.5v-239zM92 -57h61l-59 -150h-46v8z" />
    <glyph glyph-name="Rcaron" unicode="&#x158;" horiz-adv-x="584" 
d="M298 537h-153v-224h153q69 0 106.5 29t37.5 85q0 57 -32.5 83.5t-111.5 26.5zM466 0l-180 250h-141v-250h-73v600h233q209 0 209 -172q0 -71 -39.5 -115.5t-114.5 -57.5l189 -244v-11h-83zM299 653h-31l-128 114l25 30l119 -87l120 87l24 -30z" />
    <glyph glyph-name="rcaron" unicode="&#x159;" horiz-adv-x="324" 
d="M135 0h-69v465h67v-125h6q33 130 148 130h19v-75h-22q-78 0 -113.5 -36.5t-35.5 -119.5v-239zM200 530h-31l-129 138l28 28l117 -106l117 106l28 -28z" />
    <glyph glyph-name="Sacute" unicode="&#x15a;" horiz-adv-x="550" 
d="M288 -11q-229 1 -257 202l69 15q26 -156 190 -156q76 0 113 28t37 77q0 48 -36.5 74.5t-128.5 42.5q-117 21 -166.5 64.5t-49.5 112.5q0 75 54.5 118.5t158.5 43.5q101 0 153.5 -45.5t71.5 -132.5l-72 -15q-16 69 -50 100.5t-106 31.5q-69 0 -104 -25.5t-35 -71.5
q0 -44 36 -72t133 -47q120 -23 166.5 -65t46.5 -109q0 -80 -54.5 -125.5t-169.5 -45.5zM180 663l-12 38l253 92l19 -61z" />
    <glyph glyph-name="sacute" unicode="&#x15b;" horiz-adv-x="454" 
d="M241 -12q-99 0 -147.5 39.5t-65.5 116.5l64 13q13 -54 47.5 -83.5t102.5 -29.5q111 0 111 79q0 36 -30 54.5t-107 31.5q-87 15 -125 47.5t-38 87.5q0 60 44 96t127 36t124 -34.5t58 -101.5l-64 -15q-12 52 -40.5 74t-78.5 22q-103 0 -103 -74q0 -32 27.5 -52.5
t95.5 -31.5q95 -16 136.5 -48.5t41.5 -89.5q0 -64 -44.5 -100.5t-135.5 -36.5zM162 524l-17 35l230 134l29 -53z" />
    <glyph glyph-name="Scircumflex" unicode="&#x15c;" horiz-adv-x="550" 
d="M288 -11q-229 1 -257 202l69 15q26 -156 190 -156q76 0 113 28t37 77q0 48 -36.5 74.5t-128.5 42.5q-117 21 -166.5 64.5t-49.5 112.5q0 75 54.5 118.5t158.5 43.5q101 0 153.5 -45.5t71.5 -132.5l-72 -15q-16 69 -50 100.5t-106 31.5q-69 0 -104 -25.5t-35 -71.5
q0 -44 36 -72t133 -47q120 -23 166.5 -65t46.5 -109q0 -80 -54.5 -125.5t-169.5 -45.5zM391 649l-119 88l-120 -88l-24 31l129 114h30l129 -114z" />
    <glyph glyph-name="scircumflex" unicode="&#x15d;" horiz-adv-x="454" 
d="M241 -12q-99 0 -147.5 39.5t-65.5 116.5l64 13q13 -54 47.5 -83.5t102.5 -29.5q111 0 111 79q0 36 -30 54.5t-107 31.5q-87 15 -125 47.5t-38 87.5q0 60 44 96t127 36t124 -34.5t58 -101.5l-64 -15q-12 52 -40.5 74t-78.5 22q-103 0 -103 -74q0 -32 27.5 -52.5
t95.5 -31.5q95 -16 136.5 -48.5t41.5 -89.5q0 -64 -44.5 -100.5t-135.5 -36.5zM347 523l-117 107l-118 -107l-27 29l130 138h30l130 -138z" />
    <glyph glyph-name="uni015E" unicode="&#x15e;" horiz-adv-x="550" 
d="M288 -11h-12l-17 -42q19 8 42 8q73 0 73 -55q0 -26 -21 -47t-68 -21q-61 0 -101 29l22 34q38 -25 78 -25q48 0 48 32q0 28 -44 28q-21 0 -43 -6l-27 12l21 56q-183 21 -208 199l69 15q26 -156 190 -156q76 0 113 28t37 77q0 48 -36.5 74.5t-128.5 42.5
q-117 21 -166.5 64.5t-49.5 112.5q0 75 54.5 118.5t158.5 43.5q101 0 153.5 -45.5t71.5 -132.5l-72 -15q-16 69 -50 100.5t-106 31.5q-69 0 -104 -25.5t-35 -71.5q0 -44 36 -72t133 -47q120 -23 166.5 -65t46.5 -109q0 -80 -54.5 -125.5t-169.5 -45.5z" />
    <glyph glyph-name="uni015F" unicode="&#x15f;" horiz-adv-x="454" 
d="M241 -12h-18l-16 -41q19 8 42 8q73 0 73 -55q0 -26 -21 -47t-68 -21q-61 0 -101 29l22 34q38 -25 78 -25q48 0 48 32q0 28 -44 28q-21 0 -43 -6l-27 12l21 56q-71 10 -108 48t-51 104l64 13q13 -54 47.5 -83.5t102.5 -29.5q111 0 111 79q0 36 -30 54.5t-107 31.5
q-87 15 -125 47.5t-38 87.5q0 60 44 96t127 36t124 -34.5t58 -101.5l-64 -15q-12 52 -40.5 74t-78.5 22q-103 0 -103 -74q0 -32 27.5 -52.5t95.5 -31.5q95 -16 136.5 -48.5t41.5 -89.5q0 -64 -44.5 -100.5t-135.5 -36.5z" />
    <glyph glyph-name="Scaron" unicode="&#x160;" horiz-adv-x="550" 
d="M288 -11q-229 1 -257 202l69 15q26 -156 190 -156q76 0 113 28t37 77q0 48 -36.5 74.5t-128.5 42.5q-117 21 -166.5 64.5t-49.5 112.5q0 75 54.5 118.5t158.5 43.5q101 0 153.5 -45.5t71.5 -132.5l-72 -15q-16 69 -50 100.5t-106 31.5q-69 0 -104 -25.5t-35 -71.5
q0 -44 36 -72t133 -47q120 -23 166.5 -65t46.5 -109q0 -80 -54.5 -125.5t-169.5 -45.5zM288 653h-31l-128 114l25 30l119 -87l120 87l24 -30z" />
    <glyph glyph-name="scaron" unicode="&#x161;" horiz-adv-x="454" 
d="M241 -12q-99 0 -147.5 39.5t-65.5 116.5l64 13q13 -54 47.5 -83.5t102.5 -29.5q111 0 111 79q0 36 -30 54.5t-107 31.5q-87 15 -125 47.5t-38 87.5q0 60 44 96t127 36t124 -34.5t58 -101.5l-64 -15q-12 52 -40.5 74t-78.5 22q-103 0 -103 -74q0 -32 27.5 -52.5
t95.5 -31.5q95 -16 136.5 -48.5t41.5 -89.5q0 -64 -44.5 -100.5t-135.5 -36.5zM244 530h-31l-129 138l28 28l117 -106l117 106l28 -28z" />
    <glyph glyph-name="Tcommaaccent" unicode="&#x162;" horiz-adv-x="508" 
d="M16 533v67h476v-67h-202v-533h-34l-21 -53q19 8 42 8q73 0 73 -55q0 -26 -21 -47t-68 -21q-61 0 -101 29l22 34q38 -25 78 -25q48 0 48 32q0 28 -44 28q-21 0 -43 -6l-27 12l25 64h-1v533h-202z" />
    <glyph glyph-name="tcommaaccent" unicode="&#x163;" horiz-adv-x="349" 
d="M97 136v270h-76v59h76v134h68v-134h158v-59h-158v-265q0 -88 79 -88q32 0 74 12l10 -61q-46 -15 -96 -15q-22 0 -37 4l-18 -46q19 8 42 8q73 0 73 -55q0 -26 -21 -47t-68 -21q-61 0 -101 29l22 34q38 -25 78 -25q48 0 48 32q0 28 -44 28q-21 0 -43 -6l-27 12l26 68
q-65 35 -65 132z" />
    <glyph glyph-name="Tcaron" unicode="&#x164;" horiz-adv-x="508" 
d="M492 533h-202v-533h-72v533h-202v67h476v-67zM269 653h-31l-128 114l25 30l119 -87l120 87l24 -30z" />
    <glyph glyph-name="tcaron" unicode="&#x165;" horiz-adv-x="351" 
d="M277 674h59l-19 -161h-43zM97 136v270h-76v59h76v134h68v-134h158v-59h-158v-265q0 -88 79 -88q32 0 74 12l10 -61q-46 -15 -96 -15q-67 0 -101 40t-34 107z" />
    <glyph glyph-name="Tbar" unicode="&#x166;" horiz-adv-x="508" 
d="M17 533v67h476v-67h-202v-231h143v-50h-143v-252h-72v252h-145v50h145v231h-202z" />
    <glyph glyph-name="tbar" unicode="&#x167;" horiz-adv-x="349" 
d="M97 136v93h-63v48h63v129h-76v59h76v134h68v-134h158v-59h-158v-129h145v-48h-145v-88q0 -88 79 -88q32 0 74 12l10 -61q-46 -15 -96 -15q-67 0 -101 40t-34 107z" />
    <glyph glyph-name="Utilde" unicode="&#x168;" horiz-adv-x="627" 
d="M319 54q89 0 126 45t37 129v372h73v-375q0 -115 -60.5 -175.5t-175.5 -60.5q-118 0 -182 60t-64 176v375h72v-366q0 -180 174 -180zM244 815q27 0 48.5 -16.5t33 -35.5t27 -35.5t31.5 -16.5q41 0 38 100h39q3 -24 3 -45q0 -53 -20.5 -80.5t-56.5 -27.5q-25 0 -46 16
t-32.5 35.5t-27.5 35.5t-33 16q-24 0 -33 -21.5t-8 -74.5h-39q-3 24 -3 43q0 53 21 80t58 27z" />
    <glyph glyph-name="utilde" unicode="&#x169;" horiz-adv-x="532" 
d="M398 0v120h-7q-19 -60 -65 -95.5t-108 -35.5q-79 0 -118 46t-39 126v304h69v-290q0 -123 112 -123q70 0 112.5 40t42.5 105v268h69v-465h-68zM193 695q27 0 48.5 -16.5t33 -35.5t27 -35.5t31.5 -16.5q41 0 38 100h39q3 -24 3 -45q0 -53 -20.5 -80.5t-56.5 -27.5
q-25 0 -46 16t-32.5 35.5t-27.5 35.5t-33 16q-24 0 -33 -21.5t-8 -74.5h-39q-3 24 -3 43q0 53 21 80t58 27z" />
    <glyph glyph-name="Umacron" unicode="&#x16a;" horiz-adv-x="627" 
d="M319 54q89 0 126 45t37 129v372h73v-375q0 -115 -60.5 -175.5t-175.5 -60.5q-118 0 -182 60t-64 176v375h72v-366q0 -180 174 -180zM177 726h273v-55h-273v55z" />
    <glyph glyph-name="umacron" unicode="&#x16b;" horiz-adv-x="532" 
d="M398 0v120h-7q-19 -60 -65 -95.5t-108 -35.5q-79 0 -118 46t-39 126v304h69v-290q0 -123 112 -123q70 0 112.5 40t42.5 105v268h69v-465h-68zM128 613h272v-54h-272v54z" />
    <glyph glyph-name="Ubreve" unicode="&#x16c;" horiz-adv-x="627" 
d="M319 54q89 0 126 45t37 129v372h73v-375q0 -115 -60.5 -175.5t-175.5 -60.5q-118 0 -182 60t-64 176v375h72v-366q0 -180 174 -180zM314 707q88 0 95 85h42q0 -69 -36.5 -103t-100.5 -34t-100.5 34t-36.5 103h42q7 -85 95 -85z" />
    <glyph glyph-name="ubreve" unicode="&#x16d;" horiz-adv-x="532" 
d="M398 0v120h-7q-19 -60 -65 -95.5t-108 -35.5q-79 0 -118 46t-39 126v304h69v-290q0 -123 112 -123q70 0 112.5 40t42.5 105v268h69v-465h-68zM264 585q88 0 95 99h42q0 -76 -36 -113t-101 -37t-101 37t-36 113h42q7 -99 95 -99z" />
    <glyph glyph-name="Uring" unicode="&#x16e;" horiz-adv-x="627" 
d="M319 54q89 0 126 45t37 129v372h73v-375q0 -115 -60.5 -175.5t-175.5 -60.5q-118 0 -182 60t-64 176v375h72v-366q0 -180 174 -180zM416 749q0 -45 -27.5 -72.5t-74.5 -27.5t-74.5 27t-27.5 72q0 46 27.5 73t74.5 27t74.5 -27t27.5 -72zM258 748q0 -27 15 -42t41 -15
t41 15.5t15 42.5t-15 42t-41 15t-41 -15t-15 -43z" />
    <glyph glyph-name="uring" unicode="&#x16f;" horiz-adv-x="532" 
d="M398 0v120h-7q-19 -60 -65 -95.5t-108 -35.5q-79 0 -118 46t-39 126v304h69v-290q0 -123 112 -123q70 0 112.5 40t42.5 105v268h69v-465h-68zM200 633q0 -31 17 -48t47 -17t46.5 17t16.5 48t-16.5 47.5t-46.5 16.5t-47 -16.5t-17 -47.5zM373 633q0 -50 -29.5 -79
t-79.5 -29q-51 0 -80.5 29t-29.5 79q0 49 29.5 78.5t80.5 29.5q50 0 79.5 -29.5t29.5 -78.5z" />
    <glyph glyph-name="Uhungarumlaut" unicode="&#x170;" horiz-adv-x="627" 
d="M319 54q89 0 126 45t37 129v372h73v-375q0 -115 -60.5 -175.5t-175.5 -60.5q-118 0 -182 60t-64 176v375h72v-366q0 -180 174 -180zM239 644l-34 21l104 155l52 -36zM373 644l-32 24l110 151l51 -38z" />
    <glyph glyph-name="uhungarumlaut" unicode="&#x171;" horiz-adv-x="532" 
d="M398 0v120h-7q-19 -60 -65 -95.5t-108 -35.5q-79 0 -118 46t-39 126v304h69v-290q0 -123 112 -123q70 0 112.5 40t42.5 105v268h69v-465h-68zM320 524l-33 23l98 158l51 -34zM190 523l-34 21l90 162l52 -32z" />
    <glyph glyph-name="Uogonek" unicode="&#x172;" horiz-adv-x="627" 
d="M319 54q89 0 126 45t37 129v372h73v-375q0 -206 -183 -232q-86 -22 -86 -64q0 -39 65 -39q19 0 53 8l3 -55q-33 -6 -61 -6q-109 0 -109 73q0 51 69 79q-112 4 -172.5 63.5t-60.5 172.5v375h72v-366q0 -180 174 -180z" />
    <glyph glyph-name="uogonek" unicode="&#x173;" horiz-adv-x="532" 
d="M468 -157q-33 -6 -61 -6q-109 0 -109 73q0 63 101 90h-1v120h-7q-19 -60 -65 -95.5t-108 -35.5q-79 0 -118 46t-39 126v304h69v-290q0 -123 112 -123q70 0 112.5 40t42.5 105v268h69v-465q-119 -23 -119 -71q0 -39 65 -39q19 0 53 8z" />
    <glyph glyph-name="Wcircumflex" unicode="&#x174;" horiz-adv-x="835" 
d="M340 250l-65 -250h-108l-162 600h79l72 -295q34 -138 54 -241h28q32 148 55 240l80 296h94l80 -296q23 -93 54 -240h27q12 64 53 241l73 295h76l-162 -600h-110l-65 250q-46 181 -66 283h-21q-25 -122 -66 -283zM536 649l-119 88l-120 -88l-24 31l129 114h30l129 -114z
" />
    <glyph glyph-name="wcircumflex" unicode="&#x175;" horiz-adv-x="736" 
d="M410 465l55 -180q41 -135 61 -227h18q17 71 65 230l52 177h70l-152 -465h-90l-62 206q-26 87 -53 202h-14q-22 -100 -53 -202l-61 -206h-88l-153 465h71l54 -177q48 -148 67 -230h19q26 114 60 227l54 180h80zM486 523l-117 107l-118 -107l-27 29l130 138h30l130 -138z
" />
    <glyph glyph-name="Ycircumflex" unicode="&#x176;" horiz-adv-x="528" 
d="M300 0h-72v207l-231 382v11h77l185 -333h11l185 333h75v-11l-230 -384v-205zM383 649l-119 88l-120 -88l-24 31l129 114h30l129 -114z" />
    <glyph glyph-name="ycircumflex" unicode="&#x177;" horiz-adv-x="473" 
d="M75 -168q-32 0 -68 6l11 63q30 -6 59 -6q46 0 74.5 21t57.5 87l-205 462h76l65 -164q81 -206 93 -240h12q40 110 88 238l62 166h73l-202 -471q-37 -86 -82.5 -124t-113.5 -38zM354 523l-117 107l-118 -107l-27 29l130 138h30l130 -138z" />
    <glyph glyph-name="Ydieresis" unicode="&#x178;" horiz-adv-x="528" 
d="M300 0h-72v207l-231 382v11h77l185 -333h11l185 333h75v-11l-230 -384v-205zM131 749h83v-83h-83v83zM312 749h83v-83h-83v83z" />
    <glyph glyph-name="Zacute" unicode="&#x179;" horiz-adv-x="560" 
d="M515 67v-67h-479v66l391 469l-5 10q-114 -12 -210 -12h-164v67h466v-65l-394 -471l4 -9q130 12 226 12h165zM187 663l-12 38l253 92l19 -61z" />
    <glyph glyph-name="zacute" unicode="&#x17a;" horiz-adv-x="482" 
d="M307 62h131v-62h-398v62l321 345l-5 9q-111 -13 -202 -13h-105v62h385v-62l-320 -345l5 -9q124 13 188 13zM163 524l-17 35l230 134l29 -53z" />
    <glyph glyph-name="Zdotaccent" unicode="&#x17b;" horiz-adv-x="560" 
d="M515 67v-67h-479v66l391 469l-5 10q-114 -12 -210 -12h-164v67h466v-65l-394 -471l4 -9q130 12 226 12h165zM232 769h87v-85h-87v85z" />
    <glyph glyph-name="zdotaccent" unicode="&#x17c;" horiz-adv-x="482" 
d="M307 62h131v-62h-398v62l321 345l-5 9q-111 -13 -202 -13h-105v62h385v-62l-320 -345l5 -9q124 13 188 13zM196 649h87v-85h-87v85z" />
    <glyph glyph-name="Zcaron" unicode="&#x17d;" horiz-adv-x="560" 
d="M515 67v-67h-479v66l391 469l-5 10q-114 -12 -210 -12h-164v67h466v-65l-394 -471l4 -9q130 12 226 12h165zM291 653h-31l-128 114l25 30l119 -87l120 87l24 -30z" />
    <glyph glyph-name="zcaron" unicode="&#x17e;" horiz-adv-x="482" 
d="M307 62h131v-62h-398v62l321 345l-5 9q-111 -13 -202 -13h-105v62h385v-62l-320 -345l5 -9q124 13 188 13zM254 530h-31l-129 138l28 28l117 -106l117 106l28 -28z" />
    <glyph glyph-name="Aringacute" unicode="&#x1fa;" horiz-adv-x="577" 
d="M214 780l-12 38l251 92l20 -62zM233 659q0 -27 15 -42.5t41 -15.5t41.5 15.5t15.5 43.5t-15.5 43.5t-41.5 15.5t-41 -16t-15 -44zM196 312l-28 -74h239l-29 74q-43 112 -78 224h-23q-42 -125 -81 -224zM499 0l-70 181h-283l-69 -181h-76l230 573q-45 27 -45 86
q0 47 28 75t75 28q48 0 76 -27.5t28 -74.5q0 -60 -46 -87l229 -573h-77z" />
    <glyph glyph-name="aringacute" unicode="&#x1fb;" horiz-adv-x="490" 
d="M174 746l-11 38l238 88l20 -62zM201 50q70 0 113.5 35t43.5 89v32h-152q-104 0 -104 -79q0 -34 23.5 -55.5t75.5 -21.5zM361 3v111h-8q-18 -59 -62.5 -90t-108.5 -31q-147 0 -147 128q0 61 42 98.5t121 37.5h160v43q0 60 -26.5 90t-87.5 30q-101 0 -125 -103l-66 17
q16 69 65 106.5t127 37.5q181 0 181 -177v-298h-65zM187 614q0 -27 15 -42t41 -15t41 15.5t15 42.5t-15 42t-41 15t-41 -15t-15 -43zM345 615q0 -45 -27.5 -72.5t-74.5 -27.5t-74.5 27t-27.5 72q0 46 27.5 73t74.5 27t74.5 -27t27.5 -72z" />
    <glyph glyph-name="AEacute" unicode="&#x1fc;" horiz-adv-x="851" 
d="M358 663l-12 38l253 92l19 -61zM393 0v150h-229l-82 -150h-74v6l332 594h457v-65h-331v-197h296v-64h-296v-209h331v-65h-404zM252 312l-56 -103h197v329h-26q-53 -114 -115 -226z" />
    <glyph glyph-name="aeacute" unicode="&#x1fd;" horiz-adv-x="830" 
d="M203 48q70 0 113.5 34.5t43.5 88.5v40h-151q-105 0 -105 -86q0 -34 23.5 -55.5t75.5 -21.5zM586 419q-145 0 -157 -161h302q-5 161 -145 161zM792 139q-39 -150 -202 -150q-79 0 -134 35.5t-76 100.5q-17 -67 -69.5 -101.5t-124.5 -34.5q-71 0 -110 32t-39 98
q0 59 42 95.5t121 36.5h160v46q0 60 -26.5 90t-88.5 30q-101 0 -125 -103l-65 18q15 68 64 106t123 38q137 0 166 -110q23 53 69.5 81.5t109.5 28.5q101 0 154.5 -58t53.5 -158q0 -28 -2 -44h-365q4 -80 45.5 -124t115.5 -44q64 0 95 28.5t47 80.5zM340 524l-17 35l230 134
l29 -53z" />
    <glyph glyph-name="Oslashacute" unicode="&#x1fe;" horiz-adv-x="655" 
d="M329 -11q-122 0 -199 68l-55 -57h-60v5l83 85q-64 82 -64 211q0 141 78 225.5t217 84.5q128 0 206 -73l59 62h57v-5l-87 -90q60 -82 60 -204q0 -141 -77.5 -226.5t-217.5 -85.5zM104 301q0 -99 42 -162l342 350q-59 59 -159 59q-110 0 -167.5 -67.5t-57.5 -179.5z
M244 663l-12 38l253 92l19 -61zM329 52q112 0 168.5 67t56.5 182q0 91 -39 154l-339 -351q57 -52 153 -52z" />
    <glyph glyph-name="oslashacute" unicode="&#x1ff;" horiz-adv-x="530" 
d="M265 -11q-97 0 -157 55l-41 -44h-58v6l70 71q-44 61 -44 157q0 113 62.5 177.5t167.5 64.5q96 0 156 -54l40 43h55v-6l-66 -68q45 -62 45 -157q0 -113 -62 -179t-168 -66zM265 418q-79 0 -122 -48.5t-43 -134.5q0 -67 24 -113l254 257q-44 39 -113 39zM194 524l-17 35
l230 134l29 -53zM264 47q81 0 123.5 50t42.5 138q0 65 -25 110l-254 -258q42 -40 113 -40z" />
    <glyph glyph-name="uni0218" unicode="&#x218;" horiz-adv-x="550" 
d="M288 -11q-229 1 -257 202l69 15q26 -156 190 -156q76 0 113 28t37 77q0 48 -36.5 74.5t-128.5 42.5q-117 21 -166.5 64.5t-49.5 112.5q0 75 54.5 118.5t158.5 43.5q101 0 153.5 -45.5t71.5 -132.5l-72 -15q-16 69 -50 100.5t-106 31.5q-69 0 -104 -25.5t-35 -71.5
q0 -44 36 -72t133 -47q120 -23 166.5 -65t46.5 -109q0 -80 -54.5 -125.5t-169.5 -45.5zM254 -57h61l-59 -150h-46v8z" />
    <glyph glyph-name="uni0219" unicode="&#x219;" horiz-adv-x="454" 
d="M241 -12q-99 0 -147.5 39.5t-65.5 116.5l64 13q13 -54 47.5 -83.5t102.5 -29.5q111 0 111 79q0 36 -30 54.5t-107 31.5q-87 15 -125 47.5t-38 87.5q0 60 44 96t127 36t124 -34.5t58 -101.5l-64 -15q-12 52 -40.5 74t-78.5 22q-103 0 -103 -74q0 -32 27.5 -52.5
t95.5 -31.5q95 -16 136.5 -48.5t41.5 -89.5q0 -64 -44.5 -100.5t-135.5 -36.5zM217 -57h61l-59 -150h-46v8z" />
    <glyph glyph-name="uni021A" unicode="&#x21a;" horiz-adv-x="508" 
d="M16 533v67h476v-67h-202v-533h-72v533h-202zM241 -57h61l-59 -150h-46v8z" />
    <glyph glyph-name="uni021B" unicode="&#x21b;" horiz-adv-x="349" 
d="M97 136v270h-76v59h76v134h68v-134h158v-59h-158v-265q0 -88 79 -88q32 0 74 12l10 -61q-46 -15 -96 -15q-67 0 -101 40t-34 107zM171 -57h61l-59 -150h-46v8z" />
    <glyph glyph-name="circumflex" unicode="&#x2c6;" horiz-adv-x="330" 
d="M282 523l-117 107l-118 -107l-27 29l130 138h30l130 -138z" />
    <glyph glyph-name="caron" unicode="&#x2c7;" horiz-adv-x="330" 
d="M180 530h-31l-129 138l28 28l117 -106l117 106l28 -28z" />
    <glyph glyph-name="breve" unicode="&#x2d8;" horiz-adv-x="326" 
d="M164 585q88 0 95 99h42q0 -76 -36 -113t-101 -37t-101 37t-36 113h42q7 -99 95 -99z" />
    <glyph glyph-name="dotaccent" unicode="&#x2d9;" horiz-adv-x="145" 
d="M29 649h87v-85h-87v85z" />
    <glyph glyph-name="ring" unicode="&#x2da;" horiz-adv-x="289" 
d="M254 633q0 -50 -29.5 -79t-79.5 -29q-51 0 -80.5 29t-29.5 79q0 49 29.5 78.5t80.5 29.5q50 0 79.5 -29.5t29.5 -78.5zM81 633q0 -31 17 -48t47 -17t46.5 17t16.5 48t-17 47.5t-46 16.5q-30 0 -47 -16.5t-17 -47.5z" />
    <glyph glyph-name="ogonek" unicode="&#x2db;" horiz-adv-x="214" 
d="M174 10l18 -10q-119 -23 -119 -71q0 -39 65 -39q19 0 53 8l3 -55q-33 -6 -61 -6q-109 0 -109 73q0 77 150 100z" />
    <glyph glyph-name="tilde" unicode="&#x2dc;" horiz-adv-x="343" 
d="M102 695q27 0 48.5 -16.5t33 -35.5t27 -35.5t31.5 -16.5q41 0 38 100h39q3 -24 3 -45q0 -53 -20.5 -80.5t-56.5 -27.5q-25 0 -46 16t-32.5 35.5t-27.5 35.5t-33 16q-24 0 -33 -21.5t-8 -74.5h-39q-3 24 -3 43q0 53 21 80t58 27z" />
    <glyph glyph-name="hungarumlaut" unicode="&#x2dd;" horiz-adv-x="345" 
d="M69 523l-34 21l90 162l52 -32zM199 524l-33 23l98 158l51 -34z" />
    <glyph glyph-name="Wgrave" unicode="&#x1e80;" horiz-adv-x="835" 
d="M340 250l-65 -250h-108l-162 600h79l72 -295q34 -138 54 -241h28q32 148 55 240l80 296h94l80 -296q23 -93 54 -240h27q12 64 53 241l73 295h76l-162 -600h-110l-65 250q-46 181 -66 283h-21q-25 -122 -66 -283zM497 663l-261 71l19 57l253 -90z" />
    <glyph glyph-name="wgrave" unicode="&#x1e81;" horiz-adv-x="736" 
d="M410 465l55 -180q41 -135 61 -227h18q17 71 65 230l52 177h70l-152 -465h-90l-62 206q-26 87 -53 202h-14q-22 -100 -53 -202l-61 -206h-88l-153 465h71l54 -177q48 -148 67 -230h19q26 114 60 227l54 180h80zM452 524l-242 115l30 55l229 -135z" />
    <glyph glyph-name="Wacute" unicode="&#x1e82;" horiz-adv-x="835" 
d="M340 250l-65 -250h-108l-162 600h79l72 -295q34 -138 54 -241h28q32 148 55 240l80 296h94l80 -296q23 -93 54 -240h27q12 64 53 241l73 295h76l-162 -600h-110l-65 250q-46 181 -66 283h-21q-25 -122 -66 -283zM328 663l-12 38l253 92l19 -61z" />
    <glyph glyph-name="wacute" unicode="&#x1e83;" horiz-adv-x="736" 
d="M410 465l55 -180q41 -135 61 -227h18q17 71 65 230l52 177h70l-152 -465h-90l-62 206q-26 87 -53 202h-14q-22 -100 -53 -202l-61 -206h-88l-153 465h71l54 -177q48 -148 67 -230h19q26 114 60 227l54 180h80zM293 524l-17 35l230 134l29 -53z" />
    <glyph glyph-name="Wdieresis" unicode="&#x1e84;" horiz-adv-x="835" 
d="M340 250l-65 -250h-108l-162 600h79l72 -295q34 -138 54 -241h28q32 148 55 240l80 296h94l80 -296q23 -93 54 -240h27q12 64 53 241l73 295h76l-162 -600h-110l-65 250q-46 181 -66 283h-21q-25 -122 -66 -283zM284 749h83v-83h-83v83zM465 749h83v-83h-83v83z" />
    <glyph glyph-name="wdieresis" unicode="&#x1e85;" horiz-adv-x="736" 
d="M410 465l55 -180q41 -135 61 -227h18q17 71 65 230l52 177h70l-152 -465h-90l-62 206q-26 87 -53 202h-14q-22 -100 -53 -202l-61 -206h-88l-153 465h71l54 -177q48 -148 67 -230h19q26 114 60 227l54 180h80zM236 638h83v-83h-83v83zM417 638h83v-83h-83v83z" />
    <glyph glyph-name="uni1E9E" unicode="&#x1e9e;" horiz-adv-x="594" 
d="M404 -10q-138 0 -180 102l37 45q38 -84 143 -83q92 0 92 77q0 37 -24.5 57.5t-74.5 40.5q-36 15 -50.5 22t-39.5 24t-35.5 39t-10.5 51q0 97 157 173l-4 12q-64 -11 -137 -11q-132 0 -132 -141v-398h-72v403q0 96 54.5 146.5t159.5 50.5h194v-61q-153 -79 -153 -159
q0 -35 24.5 -55t73.5 -40q69 -29 103.5 -63t34.5 -91q0 -64 -39.5 -102.5t-120.5 -38.5z" />
    <glyph glyph-name="endash" unicode="&#x2013;" horiz-adv-x="476" 
d="M23 275h430v-63h-430v63z" />
    <glyph glyph-name="emdash" unicode="&#x2014;" horiz-adv-x="860" 
d="M23 275h814v-63h-814v63z" />
    <glyph glyph-name="quoteleft" unicode="&#x2018;" horiz-adv-x="186" 
d="M105 332h-73l81 268h40v-6z" />
    <glyph glyph-name="quoteright" unicode="&#x2019;" horiz-adv-x="186" 
d="M80 600h74l-81 -268h-40v6z" />
    <glyph glyph-name="quotesinglbase" unicode="&#x201a;" horiz-adv-x="182" 
d="M76 118h74l-81 -268h-40v6z" />
    <glyph glyph-name="quotedblleft" unicode="&#x201c;" horiz-adv-x="339" 
d="M112 332h-73l81 268h40v-6zM266 332h-73l81 268h40v-6z" />
    <glyph glyph-name="quotedblright" unicode="&#x201d;" horiz-adv-x="339" 
d="M80 600h74l-81 -268h-40v6zM234 600h74l-81 -268h-40v6z" />
    <glyph glyph-name="quotedblbase" unicode="&#x201e;" horiz-adv-x="327" 
d="M60 118h74l-81 -268h-40v6zM214 118h74l-81 -268h-40v6z" />
    <glyph glyph-name="dagger" unicode="&#x2020;" horiz-adv-x="556" 
d="M314 -210h-72v617h-148v-197h-62v255h210v205h72v-205h210v-255h-63v197h-147v-617z" />
    <glyph glyph-name="daggerdbl" unicode="&#x2021;" horiz-adv-x="568" 
d="M248 670h72v-158h210v-195h-62v137h-148v-396h148v136h62v-194h-210v-210h-72v210h-210v194h62v-136h148v396h-148v-137h-62v195h210v158z" />
    <glyph glyph-name="bullet" unicode="&#x2022;" horiz-adv-x="261" 
d="M58 319h146v-146h-146v146z" />
    <glyph glyph-name="ellipsis" unicode="&#x2026;" horiz-adv-x="547" 
d="M43 94h94v-94h-94v94zM227 94h94v-94h-94v94zM411 94h94v-94h-94v94z" />
    <glyph glyph-name="perthousand" unicode="&#x2030;" horiz-adv-x="1076" 
d="M902 -10q-72 0 -114.5 45.5t-42.5 123.5t42.5 122t114.5 44t114 -44.5t42 -121.5q0 -78 -42.5 -123.5t-113.5 -45.5zM901 41q49 0 74.5 31.5t25.5 86.5q0 54 -26 84t-73 30q-48 0 -74 -30t-26 -84q0 -55 25.5 -86.5t73.5 -31.5zM193 275q-72 0 -114.5 45.5t-42.5 123.5
t42.5 122t114.5 44t114 -44.5t42 -121.5q0 -78 -42.5 -123.5t-113.5 -45.5zM192 327q49 0 74.5 31t25.5 86q0 54 -26 84.5t-73 30.5q-48 0 -74 -30.5t-26 -84.5q0 -55 25 -86t74 -31zM543 -10q-72 0 -114.5 45.5t-42.5 123.5t42.5 122t114.5 44t114.5 -44.5t42.5 -121.5
q0 -78 -42.5 -123.5t-114.5 -45.5zM542 41q49 0 74.5 31.5t25.5 86.5q0 54 -26 84t-73 30q-48 0 -74 -30t-26 -84q0 -55 25.5 -86.5t73.5 -31.5zM576 600h89v-6l-253 -258l-22 20zM164 0h-89v6l253 258l22 -20z" />
    <glyph glyph-name="guilsinglleft" unicode="&#x2039;" horiz-adv-x="372" 
d="M341 34h-67l-252 214v20l252 214h67v-12l-248 -210v-4l248 -210v-12z" />
    <glyph glyph-name="guilsinglright" unicode="&#x203a;" horiz-adv-x="375" 
d="M101 28h-67v11l248 211v3l-248 211v12h67l252 -214v-20z" />
    <glyph glyph-name="fraction" unicode="&#x2044;" horiz-adv-x="26" 
d="M220 600h89v-6l-253 -258l-22 20zM-192 0h-89v6l253 258l22 -20z" />
    <glyph glyph-name="Euro" unicode="&#x20ac;" horiz-adv-x="650" 
d="M350 -11q-107 0 -174 61.5t-85 169.5h-71v42h66q-1 13 -1 39q0 22 1 32h-66v42h71q17 111 85.5 173.5t176.5 62.5q105 0 169 -59t81 -164l-68 -14q-36 173 -183 173q-161 0 -190 -172h175v-42h-180q-1 -10 -1 -32q0 -27 1 -39h180v-42h-174q30 -168 188 -168
q81 0 125.5 45t61.5 134l69 -14q-17 -107 -82.5 -167.5t-174.5 -60.5z" />
    <glyph glyph-name="uni2116" unicode="&#x2116;" horiz-adv-x="1059" 
d="M658 172h339v-62h-339v62zM828 297q57 0 85.5 35t28.5 96q0 59 -29 92t-84 33t-84.5 -33t-29.5 -92q0 -61 28.5 -96t84.5 -35zM829 240q-82 0 -129.5 50.5t-47.5 136.5q0 85 47.5 134t129.5 49q81 0 129 -49t48 -134q0 -86 -48 -136.5t-129 -50.5zM466 0l-199 321
q-53 85 -111 211h-23q9 -126 9 -293v-239h-70v600h108l175 -282q74 -123 128 -238h20q-9 144 -9 281v239h69v-600h-97z" />
    <glyph glyph-name="trademark" unicode="&#x2122;" horiz-adv-x="881" 
d="M23 549v51h311v-51h-126v-294h-59v294h-126zM449 380v-125h-53v345h101l40 -95q57 -133 69 -171h11q16 43 70 171l41 95h93v-345h-58v125q0 24 3 168h-14q-37 -100 -68 -168l-48 -108h-55l-46 106q-65 148 -74 170h-15q3 -74 3 -168z" />
    <glyph glyph-name="uni2190" unicode="&#x2190;" horiz-adv-x="756" 
d="M35 271v35l325 283l42 -52q-136 -114 -291 -219l3 -6q129 9 338 9h265v-65h-265q-195 0 -338 10l-3 -6q140 -95 291 -220l-43 -51z" />
    <glyph glyph-name="arrowup" unicode="&#x2191;" horiz-adv-x="693" 
d="M329 641h35l283 -325l-52 -43q-118 141 -220 291l-6 -2q10 -145 10 -339v-265h-66v265q0 179 11 338l-7 3q-102 -148 -219 -291l-52 44z" />
    <glyph glyph-name="uni2192" unicode="&#x2192;" horiz-adv-x="756" 
d="M721 307v-35l-325 -283l-43 52q144 119 291 219l-2 6q-130 -9 -339 -9h-265v65h265q194 0 339 -10l2 6q-140 97 -291 220l44 51z" />
    <glyph glyph-name="arrowdown" unicode="&#x2193;" horiz-adv-x="693" 
d="M364 -40h-35l-283 325l52 43q118 -141 220 -291l6 3q-10 143 -10 338v265h65v-265q0 -195 -10 -338l7 -3q85 127 219 291l52 -44z" />
    <glyph glyph-name="minus" unicode="&#x2212;" horiz-adv-x="494" 
d="M460 274h-426v63h426v-63z" />
    <glyph glyph-name="uni25A0" unicode="&#x25a0;" horiz-adv-x="900" 
d="M36 -119q2 138 2 414t-2 414q138 -3 414 -3t414 3q-2 -138 -2 -414t2 -414q-207 3 -414 3t-414 -3z" />
    <glyph glyph-name="uni25B2" unicode="&#x25b2;" horiz-adv-x="900" 
d="M75 0v4l375 617h4l372 -617v-4h-751z" />
    <glyph glyph-name="uni25B3" unicode="&#x25b3;" horiz-adv-x="900" 
d="M75 0v4l375 617h4l372 -617v-4h-751zM452 63q103 0 281 -14l3 6q-166 228 -281 475h-5q-122 -255 -282 -475l3 -6q168 14 281 14z" />
    <glyph glyph-name="uni25B6" unicode="&#x25b6;" horiz-adv-x="900" 
d="M180 679h4l617 -375v-4l-617 -372h-4v751z" />
    <glyph glyph-name="uni25B7" unicode="&#x25b7;" horiz-adv-x="900" 
d="M180 679h4l617 -375v-4l-617 -372h-4v751zM243 302q0 -103 -14 -281l6 -3q228 166 475 281v5q-255 122 -475 282l-6 -3q14 -168 14 -281z" />
    <glyph glyph-name="uni25BC" unicode="&#x25bc;" horiz-adv-x="900" 
d="M825 600v-4l-375 -617h-4l-372 617v4h751z" />
    <glyph glyph-name="uni25BD" unicode="&#x25bd;" horiz-adv-x="900" 
d="M731 545l-3 6q-168 -14 -281 -14q-103 0 -281 14l-3 -6q166 -228 281 -475h5q122 255 282 475zM73 600h751v-4l-375 -617h-4l-372 617v4z" />
    <glyph glyph-name="uni25C0" unicode="&#x25c0;" horiz-adv-x="900" 
d="M720 679h-4l-617 -375v-4l617 -372h4v751z" />
    <glyph glyph-name="uni25C1" unicode="&#x25c1;" horiz-adv-x="900" 
d="M716 679h4v-751h-4l-617 372v4zM657 302q0 113 14 281l-6 3q-220 -160 -475 -282v-5q247 -115 475 -281l6 3q-14 178 -14 281z" />
    <glyph glyph-name="uni25C6" unicode="&#x25c6;" horiz-adv-x="900" 
d="M450 -193q-239 258 -483 483q255 237 483 483q228 -246 483 -483q-244 -225 -483 -483z" />
    <glyph glyph-name="uni25CF" unicode="&#x25cf;" horiz-adv-x="900" 
d="M-3 294q0 210 122 331.5t332 121.5q209 0 330.5 -121.5t121.5 -331.5t-121.5 -331.5t-330.5 -121.5q-210 0 -332 121.5t-122 331.5z" />
    <glyph glyph-name="uni2605" unicode="&#x2605;" horiz-adv-x="900" 
d="M707 -78l-257 149l-255 -149l-3 2l61 289l-220 197l1 4l295 31l119 270h4l119 -270l295 -31l1 -4l-220 -197l61 -289z" />
    <glyph glyph-name="uni2610" unicode="&#x2610;" horiz-adv-x="900" 
d="M727 0h-553v553h553v-553zM230 277q0 -75 -6 -227q154 6 227 6t227 -6q-7 133 -7 227q0 93 7 226q-128 -5 -227 -5t-227 5q6 -152 6 -226z" />
    <glyph glyph-name="uni2611" unicode="&#x2611;" horiz-adv-x="900" 
d="M305 306l39 42q90 -96 124 -147q98 180 299 457l54 -39q-187 -227 -336 -479h-32q-54 76 -148 166zM174 0v553h422v-3l-34 -51q-37 -1 -111 -1q-111 0 -228 6q7 -133 7 -227t-7 -227q156 6 228 6q73 0 227 -6q-7 154 -7 263l53 74h3v-387h-553z" />
    <glyph glyph-name="uni2612" unicode="&#x2612;" horiz-adv-x="900" 
d="M727 0h-553v553h553v-553zM565 129q-59 62 -114 129q-55 -67 -114 -129l-37 36q76 71 130 113q-61 49 -130 112l37 37q61 -66 114 -129q53 63 114 129l36 -37q-65 -61 -129 -112q66 -53 129 -113zM230 277q0 -75 -6 -227q154 6 227 6t227 -6q-7 133 -7 227q0 93 7 226
q-128 -5 -227 -5t-227 5q6 -152 6 -226z" />
    <glyph glyph-name="uni2661" unicode="&#x2661;" horiz-adv-x="900" 
d="M285 191q117 -79 166 -159h2q49 80 166 159q82 56 124.5 113t42.5 127q0 68 -35.5 109.5t-109.5 41.5q-72 0 -112.5 -49t-60.5 -142h-32q-20 93 -60.5 142t-112.5 49q-74 0 -109.5 -41.5t-35.5 -109.5q0 -70 42.5 -127t124.5 -113zM449 -54q-30 52 -75.5 94.5
t-119.5 96.5q-99 71 -151.5 140.5t-52.5 154.5q0 100 52.5 155.5t144.5 55.5q80 0 127 -38t71 -119h10q24 81 71 119t128 38q90 0 143 -56t53 -155q0 -85 -52 -154.5t-151 -140.5q-75 -54 -120 -96t-74 -95h-4z" />
    <glyph glyph-name="uni2726" unicode="&#x2726;" horiz-adv-x="900" 
d="M825 301v-12q-135 -41 -231 -138.5t-139 -230.5h-11q-43 133 -139 230.5t-231 138.5v12q135 41 231 138.5t139 230.5h11q43 -133 139 -230.5t231 -138.5z" />
    <glyph glyph-name="uni2727" unicode="&#x2727;" horiz-adv-x="900" 
d="M826 296v-4q-135 -41 -232.5 -140t-140.5 -232h-4q-43 133 -141 232.5t-233 140.5v4q135 41 232.5 140.5t140.5 232.5h4q43 -133 141 -233t233 -141zM716 292v7q-99 35 -163 98t-100 164h-6q-35 -101 -98.5 -164t-163.5 -98v-7q100 -36 163.5 -99t98.5 -163h6
q36 101 99.5 164t163.5 98z" />
    <glyph glyph-name="uni2728" unicode="&#x2728;" horiz-adv-x="900" 
d="M613 207v-4q-110 -34 -189.5 -114.5t-113.5 -188.5h-5q-34 108 -114 189t-191 115v4q110 34 190 114.5t115 189.5h4q35 -109 114.5 -190t189.5 -115zM304 -12h4q30 82 82.5 134t134.5 82v5q-82 31 -134.5 83t-82.5 133h-4q-29 -81 -81 -133t-134 -83v-5
q81 -30 133.5 -82.5t81.5 -133.5zM583 588v-5q-50 -16 -86 -52.5t-52 -87.5h-5q-15 51 -51.5 88t-87.5 53v4q51 15 86.5 52.5t52.5 88.5h4q16 -51 52.5 -88t86.5 -53zM537 585v2q-70 25 -93 94h-3q-24 -71 -92 -94v-2q69 -25 92 -93h3q23 68 93 93zM900 383
q-83 -25 -143 -85.5t-86 -143.5h-4q-26 82 -86.5 143t-144.5 87v4q83 25 143 86t87 144h4q26 -82 86.5 -143.5t143.5 -87.5v-4zM829 384v4q-61 22 -99 60t-60 99h-3q-22 -60 -60 -98.5t-98 -60.5v-4q116 -43 158 -158h3q42 116 159 158z" />
    <glyph glyph-name="uni2764" unicode="&#x2764;" horiz-adv-x="900" 
d="M449 -54q-30 52 -75.5 94.5t-119.5 96.5q-99 71 -151.5 140.5t-52.5 154.5q0 100 52.5 155.5t144.5 55.5q80 0 127 -38t71 -119h10q24 81 71 119t128 38q90 0 143 -56t53 -155q0 -85 -52 -154.5t-151 -140.5q-75 -54 -120 -96t-74 -95h-4z" />
    <glyph glyph-name="uni2780" unicode="&#x2780;" horiz-adv-x="865" 
d="M432 -36q165 0 251 93.5t86 248.5q0 153 -87 246t-250 93t-249.5 -93t-86.5 -246q0 -155 86 -248.5t250 -93.5zM432 702q188 0 292.5 -109t104.5 -287q0 -179 -104.5 -289t-292.5 -110q-187 0 -291.5 110t-104.5 289q0 178 104.5 287t291.5 109zM586 92h-305v52h137v325
q-36 -17 -126 -51l-20 51l173 53h33v-378h108v-52z" />
    <glyph glyph-name="uni2781" unicode="&#x2781;" horiz-adv-x="865" 
d="M432 -36q165 0 251 93.5t86 248.5q0 153 -87 246t-250 93t-249.5 -93t-86.5 -246q0 -155 86 -248.5t250 -93.5zM432 702q188 0 292.5 -109t104.5 -287q0 -179 -104.5 -289t-292.5 -110q-187 0 -291.5 110t-104.5 289q0 178 104.5 287t291.5 109zM440 479
q-109 0 -135 -117l-59 10q37 159 193 159q164 0 164 -129q0 -57 -44.5 -90t-132.5 -56q-80 -22 -108 -45t-31 -71q98 6 177 6h145v-53h-376v36q0 71 38 108t126 61q83 24 113.5 45.5t30.5 59.5q0 76 -101 76z" />
    <glyph glyph-name="uni2782" unicode="&#x2782;" horiz-adv-x="865" 
d="M432 -36q165 0 251 93.5t86 248.5q0 153 -87 246t-250 93t-249.5 -93t-86.5 -246q0 -155 86 -248.5t250 -93.5zM432 702q188 0 292.5 -109t104.5 -287q0 -179 -104.5 -289t-292.5 -110q-187 0 -291.5 110t-104.5 289q0 178 104.5 287t291.5 109zM431 84q-166 0 -201 143
l61 10q15 -52 47 -78t93 -26q121 0 121 78q0 39 -24 56t-88 17h-79v46h77q94 0 94 73q0 38 -23.5 56.5t-75.5 18.5q-54 0 -82.5 -24.5t-41.5 -74.5l-57 8q30 141 181 141q158 0 158 -114q0 -83 -100 -101v-8q69 -6 95.5 -28.5t26.5 -70.5q0 -57 -45 -89.5t-137 -32.5z" />
    <glyph glyph-name="uni2783" unicode="&#x2783;" horiz-adv-x="865" 
d="M432 -36q165 0 251 93.5t86 248.5q0 153 -87 246t-250 93t-249.5 -93t-86.5 -246q0 -155 86 -248.5t250 -93.5zM432 702q188 0 292.5 -109t104.5 -287q0 -179 -104.5 -289t-292.5 -110q-187 0 -291.5 110t-104.5 289q0 178 104.5 287t291.5 109zM610 197h-72v-105h-61
v105h-281v44l270 281h72v-275h72v-50zM423 247h54v218l-5 1l-212 -221l4 -6q85 8 159 8z" />
    <glyph glyph-name="uni2784" unicode="&#x2784;" horiz-adv-x="865" 
d="M432 -36q165 0 251 93.5t86 248.5q0 153 -87 246t-250 93t-249.5 -93t-86.5 -246q0 -155 86 -248.5t250 -93.5zM432 702q188 0 292.5 -109t104.5 -287q0 -179 -104.5 -289t-292.5 -110q-187 0 -291.5 110t-104.5 289q0 178 104.5 287t291.5 109zM439 135q114 0 114 88
q0 43 -28 63t-88 20q-74 0 -120 -27l-48 17v226h320v-55q-128 0 -266 7v-159q55 37 132 37t118 -33t41 -96q0 -138 -178 -138q-76 0 -124 28t-82 87l57 22q49 -87 152 -87z" />
    <glyph glyph-name="uni2785" unicode="&#x2785;" horiz-adv-x="865" 
d="M443 314q-68 0 -104 -25.5t-36 -62.5q0 -39 34.5 -64.5t96.5 -25.5q119 0 119 95q0 83 -110 83zM432 -36q165 0 251 93.5t86 248.5q0 153 -87 246t-250 93t-249.5 -93t-86.5 -246q0 -155 86 -248.5t250 -93.5zM432 702q188 0 292.5 -109t104.5 -287q0 -179 -104.5 -289
t-292.5 -110q-187 0 -291.5 110t-104.5 289q0 178 104.5 287t291.5 109zM615 230q0 -68 -47 -106t-136 -38q-93 0 -144 48.5t-51 160.5q0 108 48.5 172t152.5 64q81 0 118.5 -34t48.5 -100l-58 -8q-11 47 -35.5 69t-74.5 22q-75 0 -109.5 -47.5t-34.5 -147.5v-13l9 -1
q36 84 159 84q69 0 111.5 -30.5t42.5 -94.5z" />
    <glyph glyph-name="uni2786" unicode="&#x2786;" horiz-adv-x="865" 
d="M432 -36q165 0 251 93.5t86 248.5q0 153 -87 246t-250 93t-249.5 -93t-86.5 -246q0 -155 86 -248.5t250 -93.5zM432 702q188 0 292.5 -109t104.5 -287q0 -179 -104.5 -289t-292.5 -110q-187 0 -291.5 110t-104.5 289q0 178 104.5 287t291.5 109zM238 468v54h382v-54
q-167 -153 -186 -376h-68q9 105 62.5 205t141.5 178q-98 -7 -195 -7h-137z" />
    <glyph glyph-name="uni2787" unicode="&#x2787;" horiz-adv-x="865" 
d="M430 286q-127 0 -127 -77q0 -75 127 -75q129 0 129 75q0 77 -129 77zM430 480q-106 0 -108 -74q0 -74 108 -77q109 3 109 77t-109 74zM432 -36q165 0 251 93.5t86 248.5q0 153 -87 246t-250 93t-249.5 -93t-86.5 -246q0 -155 86 -248.5t250 -93.5zM432 702
q188 0 292.5 -109t104.5 -287q0 -179 -104.5 -289t-292.5 -110q-187 0 -291.5 110t-104.5 289q0 178 104.5 287t291.5 109zM430 85q-189 0 -189 119q0 88 129 101v9q-53 10 -80.5 34.5t-26.5 66.5q2 115 167 115q85 0 127 -30.5t42 -84.5q0 -82 -108 -101v-9
q130 -14 130 -101q0 -119 -191 -119z" />
    <glyph glyph-name="uni2788" unicode="&#x2788;" horiz-adv-x="865" 
d="M421 298q66 0 101 26t35 65t-33.5 64t-94.5 25q-60 0 -89 -26.5t-29 -69.5q0 -84 110 -84zM432 -36q165 0 251 93.5t86 248.5q0 153 -87 246t-250 93t-249.5 -93t-86.5 -246q0 -155 86 -248.5t250 -93.5zM432 702q188 0 292.5 -109t104.5 -287q0 -179 -104.5 -289
t-292.5 -110q-187 0 -291.5 110t-104.5 289q0 178 104.5 287t291.5 109zM429 85q-161 0 -183 133l59 9q16 -91 124 -91q72 0 105 47t33 146v11l-8 1q-39 -85 -157 -85q-67 0 -109 31.5t-42 96.5q0 66 47 106t132 40q93 0 143 -48.5t50 -160.5q0 -108 -47 -172t-147 -64z" />
    <glyph glyph-name="uni2789" unicode="&#x2789;" horiz-adv-x="861" 
d="M403 96h-210v48h93v327q-30 -15 -86 -35l-17 46l127 36h27v-374h66v-48zM547 477q-80 0 -80 -169q0 -171 80 -171q79 0 79 171q0 169 -79 169zM547 526q65 0 98.5 -57t33.5 -161q0 -103 -33.5 -161.5t-98.5 -58.5t-99 58t-34 162t34 161t99 57zM432 -36q165 0 251 93.5
t86 248.5q0 153 -87 246t-250 93t-249.5 -93t-86.5 -246q0 -155 86 -248.5t250 -93.5zM432 702q188 0 292.5 -109t104.5 -287q0 -179 -104.5 -289t-292.5 -110q-187 0 -291.5 110t-104.5 289q0 178 104.5 287t291.5 109z" />
    <glyph glyph-name="uni278A" unicode="&#x278a;" horiz-adv-x="865" 
d="M281 145v-53h305v53h-108v377h-33l-173 -53l20 -51q82 29 126 49v-322h-137zM432 702q188 0 292.5 -109t104.5 -287q0 -179 -104.5 -289t-292.5 -110q-187 0 -291.5 110t-104.5 289q0 178 104.5 287t291.5 109z" />
    <glyph glyph-name="uni278B" unicode="&#x278b;" horiz-adv-x="865" 
d="M439 480q101 0 101 -76q0 -38 -30.5 -59.5t-113.5 -45.5q-88 -24 -126 -61t-38 -108v-36h376v53h-145q-93 0 -177 -7q3 48 31 71t108 46q88 23 132 55.5t44 90.5q0 129 -163 129q-156 0 -194 -159l60 -10q25 117 135 117zM432 702q188 0 292.5 -109t104.5 -287
q0 -179 -104.5 -289t-292.5 -110q-187 0 -291.5 110t-104.5 289q0 178 104.5 287t291.5 109z" />
    <glyph glyph-name="uni278C" unicode="&#x278c;" horiz-adv-x="865" 
d="M431 84q92 0 137 32.5t45 89.5q0 48 -26.5 70.5t-95.5 28.5v8q100 20 100 101q0 114 -158 114q-153 0 -181 -141l57 -8q13 50 41.5 74.5t82.5 24.5q52 0 75.5 -18t23.5 -56q0 -73 -94 -73h-77v-46h79q64 0 88 -17.5t24 -56.5q0 -77 -121 -77q-61 0 -93.5 25.5t-46.5 77.5
l-61 -10q36 -143 201 -143zM432 702q188 0 292.5 -109t104.5 -287q0 -179 -104.5 -289t-292.5 -110q-187 0 -291.5 110t-104.5 289q0 178 104.5 287t291.5 109z" />
    <glyph glyph-name="uni278D" unicode="&#x278d;" horiz-adv-x="865" 
d="M610 198v49h-72v276h-71l-271 -282v-43h281v-105h61v105h72zM415 247q-64 0 -150 -7l-5 7l212 219l5 -1v-218h-62zM432 702q188 0 292.5 -109t104.5 -287q0 -179 -104.5 -289t-292.5 -110q-187 0 -291.5 110t-104.5 289q0 178 104.5 287t291.5 109z" />
    <glyph glyph-name="uni278E" unicode="&#x278e;" horiz-adv-x="865" 
d="M439 135q-103 0 -152 87l-57 -22q33 -59 81 -87t125 -28q178 0 178 138q0 63 -41 95.5t-119 32.5q-74 0 -131 -36v159q105 -7 265 -7v55h-320v-226l49 -17q46 27 120 27q60 0 88 -20t28 -63q0 -88 -114 -88zM432 702q188 0 292.5 -109t104.5 -287q0 -179 -104.5 -289
t-292.5 -110q-187 0 -291.5 110t-104.5 289q0 178 104.5 287t291.5 109z" />
    <glyph glyph-name="uni278F" unicode="&#x278f;" horiz-adv-x="865" 
d="M614 230q0 64 -42.5 94.5t-110.5 30.5q-125 0 -159 -85l-10 1q1 111 35 160t110 49q50 0 74.5 -22t35.5 -69l58 7q-11 66 -48.5 100t-118.5 34q-104 0 -153 -63.5t-49 -171.5q0 -209 196 -209q89 0 135.5 38t46.5 106zM443 313q110 0 110 -82q0 -95 -119 -95
q-63 0 -97 25.5t-34 64.5q0 37 36 62t104 25zM432 702q188 0 292.5 -109t104.5 -287q0 -179 -104.5 -289t-292.5 -110q-187 0 -291.5 110t-104.5 289q0 178 104.5 287t291.5 109z" />
    <glyph glyph-name="uni2790" unicode="&#x2790;" horiz-adv-x="865" 
d="M238 468h137q101 0 194 7q-88 -78 -141 -178t-62 -205h68q19 223 187 376v54h-383v-54zM432 702q188 0 292.5 -109t104.5 -287q0 -179 -104.5 -289t-292.5 -110q-187 0 -291.5 110t-104.5 289q0 178 104.5 287t291.5 109z" />
    <glyph glyph-name="uni2791" unicode="&#x2791;" horiz-adv-x="865" 
d="M431 85q190 0 190 119q0 86 -129 101v9q107 19 107 101q0 115 -168 115q-84 0 -125.5 -30.5t-41.5 -84.5q-1 -42 26.5 -67t80.5 -34v-9q-129 -15 -129 -101q0 -119 189 -119zM431 480q108 0 108 -74t-108 -77q-108 3 -108 77t108 74zM431 286q128 0 128 -77
q0 -75 -128 -75t-128 75q0 77 128 77zM432 702q188 0 292.5 -109t104.5 -287q0 -179 -104.5 -289t-292.5 -110q-187 0 -291.5 110t-104.5 289q0 178 104.5 287t291.5 109z" />
    <glyph glyph-name="uni2792" unicode="&#x2792;" horiz-adv-x="865" 
d="M623 320q0 112 -50.5 160.5t-143.5 48.5q-85 0 -132 -40t-47 -106q0 -64 42.5 -95.5t109.5 -31.5q118 0 157 86l8 -1q0 -108 -32 -156.5t-106 -48.5q-109 0 -125 90l-58 -9q22 -132 182 -132q101 0 148 63.5t47 171.5zM421 297q-111 0 -111 85q0 43 29.5 69.5t89.5 26.5
t94 -25.5t34 -63.5q0 -39 -35.5 -65.5t-100.5 -26.5zM432 702q188 0 292.5 -109t104.5 -287q0 -179 -104.5 -289t-292.5 -110q-187 0 -291.5 110t-104.5 289q0 178 104.5 287t291.5 109z" />
    <glyph glyph-name="uni2793" unicode="&#x2793;" horiz-adv-x="861" 
d="M547 526q-65 0 -99 -57t-34 -161q0 -103 34 -161.5t99 -58.5t98.5 58.5t33.5 161.5q0 104 -33.5 161t-98.5 57zM191 144v-48h210v48h-66v374h-27l-127 -36l17 -46q54 19 86 34v-326h-93zM547 477q80 0 80 -169q0 -171 -80 -171t-80 171q0 169 80 169zM432 702
q188 0 292.5 -109t104.5 -287q0 -179 -104.5 -289t-292.5 -110q-187 0 -291.5 110t-104.5 289q0 178 104.5 287t291.5 109z" />
    <glyph glyph-name="uni279A" unicode="&#x279a;" horiz-adv-x="900" 
d="M643 356v-356h-523v523h361v-2l-51 -53q-127 0 -259 6q6 -101 6 -202q0 -110 -6 -221q150 6 221 6q66 0 202 -6q-6 164 -6 245l53 60h2zM786 672l15 -14v-374h-60q5 172 23 315l-6 3q-128 -139 -296 -309l-128 -127l-42 40l129 128q137 138 310 295l-2 6
q-83 -14 -303 -22v59h360z" />
    <glyph glyph-name="uni2B1B" unicode="&#x2b1b;" horiz-adv-x="900" 
d="M727 0h-553v553h553v-553z" />
    <glyph glyph-name="uni2B1C" unicode="&#x2b1c;" horiz-adv-x="900" 
d="M727 0h-553v553h553v-553zM230 277q0 -75 -6 -227q154 6 227 6t227 -6q-7 133 -7 227q0 93 7 226q-128 -5 -227 -5t-227 5q6 -152 6 -226z" />
    <glyph glyph-name="commaaccent" unicode="&#xf6c3;" horiz-adv-x="174" 
d="M73 -57h61l-59 -150h-46v8z" />
    <glyph glyph-name="uniF8FF" unicode="&#xf8ff;" horiz-adv-x="1287" 
d="M948 8q-7 -15 -60 -15l-24 1q4 103 6 248t4 199q-25 -78 -54 -189t-46 -178t-23 -72q-7 -6 -21 -6q-6 0 -24 2.5t-32 3.5q2 62 2 205q-31 1 -93 1q1 -25 1 -80q0 -119 -10 -125q-6 -5 -26 -5q-11 0 -29 1.5t-22 1.5h-3q7 113 7 206q-15 0 -41.5 -0.5t-37.5 -0.5v-45
q0 -28 0.5 -71.5t0.5 -54.5q0 -18 -1 -20q-5 -13 -19 -16.5t-60 -4.5q-1 29 -1 79q0 54 2 130q-56 -2 -64 -2q-76 -128 -105 -199q-7 2 -22 2l-42 -5q-3 25 -16 50q-4 9 -48 76.5t-46 77.5q-2 8 -2 12q0 18 13 44q-5 10 -5 24q0 19 8 48q6 18 23.5 59t45.5 104t45 104
q33 0 70 10q44 -114 88 -326q5 0 14 -0.5t22 -1t23 -0.5v12q0 20 -0.5 78t-0.5 89q0 117 8 128q8 14 72 15q-3 -60 -3 -115q0 -34 1 -93.5t1 -83.5v-31q12 0 38 -0.5t39 -0.5q0 90 -1.5 175t-1.5 90q0 39 10 47q7 6 38 6h31q0 -13 -0.5 -38t-0.5 -37q0 -82 5 -242q67 2 95 4
q0 26 -0.5 73t-0.5 68q0 157 8 168q10 14 42 14q7 0 19.5 -1t17.5 -1q-8 -56 -8 -264v-80q98 328 122 340q8 4 30 4l46 -3q-3 -72 -3 -171q0 -64 1.5 -181t1.5 -154q0 -80 -4 -87zM1152 463q-12 -34 -33.5 -88t-34.5 -89t-13 -47v-2q1 -14 34 -69.5t39 -68.5l58 146
q-11 62 -29.5 134.5t-20.5 83.5zM70 254q0 -8 12 -29.5t31.5 -56.5t31.5 -63q12 30 28.5 66.5t25.5 57t9 29.5v2q-2 29 -47 210q-91 -197 -91 -216zM1119 608q12 -6 28 -6q19 0 30 12q68 -216 110 -373q-91 -238 -120 -244q-3 -1 -9 -1q-23 0 -66 18q-1 17 -11.5 43
t-21.5 44.5t-28.5 46t-21.5 33.5q-11 19 -11 30q0 6 2 10.5t6 9t5 6.5q3 5 3 10q0 13 -17 18q91 224 122 343z" />
    <glyph glyph-name="fi" unicode="&#xfb01;" horiz-adv-x="564" 
d="M179 496v-31h154v-59h-154v-406h-68v406h-90v59h90v32q0 73 37.5 115t110.5 42q34 0 77 -9l-4 -54q-40 7 -65 7q-88 0 -88 -102zM486 0h-68v465h68v-465zM495 564h-85v70h85v-70z" />
    <glyph glyph-name="fl" unicode="&#xfb02;" horiz-adv-x="556" 
d="M179 496v-31h154v-59h-154v-406h-68v406h-90v59h90v32q0 73 37.5 115t110.5 42q34 0 77 -9l-4 -54q-40 7 -65 7q-88 0 -88 -102zM484 642v-642h-68v642h68z" />
    <glyph glyph-name="exclamdown.case" horiz-adv-x="235" 
d="M82 389h71v-389h-71v389zM165 506h-95v94h95v-94z" />
    <glyph glyph-name="questiondown.case" horiz-adv-x="485" 
d="M155 322q61 28 61 86v11h68v-14q0 -45 -20 -73t-68 -52q-56 -28 -77.5 -53t-21.5 -69q0 -52 32.5 -79.5t95.5 -27.5q78 0 118 43t52 127l69 -9q-30 -223 -239 -223q-97 0 -148.5 43t-51.5 123q0 65 34.5 103t95.5 64zM297 506h-95v94h95v-94z" />
    <glyph glyph-name="periodcentered.case" horiz-adv-x="206" 
d="M56 350h94v-94h-94v94z" />
    <glyph glyph-name="bullet.case" horiz-adv-x="261" 
d="M58 378h146v-146h-146v146z" />
    <glyph glyph-name="guillemotleft.case" horiz-adv-x="614" 
d="M341 83h-67l-252 214v20l252 214h67v-12l-248 -210v-4l248 -210v-12zM580 83h-67l-252 214v20l252 214h67v-12l-248 -210v-4l248 -210v-12z" />
    <glyph glyph-name="guillemotright.case" horiz-adv-x="614" 
d="M340 77h-67v12l248 209v6l-248 209v12h67l252 -214v-20zM101 77h-67v12l248 210v4l-248 210v12h67l252 -214v-20z" />
    <glyph glyph-name="guilsinglleft.case" horiz-adv-x="379" 
d="M341 84h-67l-252 214v20l252 214h67v-12l-248 -210v-4l248 -210v-12z" />
    <glyph glyph-name="guilsinglright.case" horiz-adv-x="375" 
d="M101 77h-67v11l248 211v3l-248 211v12h67l252 -214v-20z" />
    <glyph glyph-name="hyphen.case" horiz-adv-x="350" 
d="M23 335h304v-66h-304v66z" />
    <glyph glyph-name="endash.case" horiz-adv-x="476" 
d="M23 335h430v-63h-430v63z" />
    <glyph glyph-name="emdash.case" horiz-adv-x="860" 
d="M23 335h814v-63h-814v63z" />
    <glyph glyph-name="parenleft.case" horiz-adv-x="327" 
d="M62 299q0 240 179 408l43 -34q-151 -158 -151 -374q0 -109 34.5 -200t116.5 -175l-43 -35q-179 171 -179 410z" />
    <glyph glyph-name="parenright.case" horiz-adv-x="326" 
d="M266 305q0 -240 -179 -408l-43 34q151 159 151 374q0 108 -35 199t-116 176l43 35q179 -171 179 -410z" />
    <glyph glyph-name="bracketleft.case" horiz-adv-x="285" 
d="M68 -78v758h191v-60h-121v-636h121v-62h-191z" />
    <glyph glyph-name="bracketright.case" horiz-adv-x="285" 
d="M26 -75v60h121v636h-121v62h191v-758h-191z" />
    <glyph glyph-name="braceleft.case" horiz-adv-x="362" 
d="M334 -106q-27 -3 -70 -3q-149 0 -149 107q0 34 22 70t44 69.5t22 61.5q0 70 -114 70h-68v61h68q51 0 83.5 19.5t32.5 59.5q0 31 -43 90t-43 98q0 51 37.5 79.5t111.5 28.5q16 0 70 -3l-1 -59q-21 1 -57 1q-47 0 -68 -14t-21 -45q0 -27 37 -81.5t37 -91.5q0 -90 -128 -108
v-9q68 -6 98 -29.5t30 -69.5q0 -40 -39 -98.5t-39 -87.5q0 -30 21.5 -44.5t68.5 -14.5q14 0 56 2z" />
    <glyph glyph-name="braceright.case" horiz-adv-x="362" 
d="M28 710q27 3 70 3q149 0 149 -107q0 -34 -22.5 -70t-44.5 -69.5t-22 -61.5q0 -70 115 -70h68v-61h-68q-52 0 -84 -19.5t-32 -59.5q0 -31 43 -90t43 -98q0 -51 -37.5 -79.5t-111.5 -28.5q-16 0 -70 3l1 59q42 -2 56 -2q47 0 68 14.5t21 45.5q0 27 -36.5 81.5t-36.5 91.5
q0 46 32 72t96 36v8q-68 7 -98 30.5t-30 69.5q0 40 38.5 98t38.5 87q0 31 -21 45.5t-68 14.5q-14 0 -56 -2z" />
    <glyph glyph-name="zero.osf" horiz-adv-x="564" 
d="M284 472q-87 0 -131.5 -56.5t-44.5 -153.5q0 -99 44 -155t132 -56t132 56t44 155q0 97 -44.5 153.5t-131.5 56.5zM284 534q118 0 183 -72.5t65 -199.5t-64.5 -200t-183.5 -73t-183.5 73t-64.5 200t65 199.5t183 72.5z" />
    <glyph glyph-name="one.osf" horiz-adv-x="465" 
d="M431 0h-385v60h176v409q-42 -26 -164 -75l-22 58l213 72h43v-464h139v-60z" />
    <glyph glyph-name="two.osf" horiz-adv-x="560" 
d="M303 474q-153 0 -170 -161l-68 8q9 98 68.5 155.5t169.5 57.5q100 0 152 -40.5t52 -120.5q0 -65 -50 -104t-167 -70q-110 -29 -147.5 -58t-38.5 -88q90 10 243 10h169v-63h-471q-1 15 -1 46q0 82 47.5 123.5t160.5 71.5q110 30 146.5 57t36.5 74q0 102 -132 102z" />
    <glyph glyph-name="three.osf" horiz-adv-x="559" 
d="M292 -85q-224 0 -258 203l70 10q14 -77 58.5 -115t129.5 -38q75 0 115 30.5t40 85.5q0 57 -32 82.5t-116 25.5h-102v56h98q56 0 91 27t35 82q0 58 -32 84.5t-99 26.5q-71 0 -108.5 -34.5t-50.5 -102.5l-68 9q33 188 226 188q201 0 201 -158q0 -112 -125 -143v-10
q86 -8 120 -40t34 -98q0 -80 -56 -125.5t-171 -45.5z" />
    <glyph glyph-name="four.osf" horiz-adv-x="575" 
d="M557 73h-95v-149h-70v149h-365v56l353 395h82v-392h95v-59zM288 132h104v319l-6 2l-285 -322l4 -8q93 9 183 9z" />
    <glyph glyph-name="five.osf" horiz-adv-x="569" 
d="M299 -26q78 0 115.5 32.5t37.5 101.5q0 121 -154 121q-44 0 -86.5 -12t-67.5 -30l-59 23v314h405v-66q-161 0 -341 9v-230q69 47 167 47q101 0 154 -45t53 -132q0 -98 -59.5 -145.5t-166.5 -47.5q-99 0 -162 40.5t-98 127.5l68 24q54 -132 194 -132z" />
    <glyph glyph-name="six.osf" horiz-adv-x="564" 
d="M304 315q-90 0 -138 -38t-48 -93q0 -57 45.5 -95t127.5 -38q159 0 159 143q0 121 -146 121zM521 193q0 -95 -59.5 -149.5t-173.5 -54.5q-249 0 -249 297q0 149 61.5 237t192.5 88q103 0 152 -46t66 -141l-69 -10q-14 70 -48 102.5t-101 32.5q-97 0 -142 -67t-45 -205v-44
l11 -1q36 135 206 135q88 0 143 -42.5t55 -131.5z" />
    <glyph glyph-name="seven.osf" horiz-adv-x="519" 
d="M16 459v65h489v-65q-220 -221 -244 -535h-78q12 148 79.5 291t179.5 253q-97 -9 -216 -9h-210z" />
    <glyph glyph-name="eight.osf" horiz-adv-x="564" 
d="M282 -11q-242 0 -242 166q0 123 164 142v12q-136 28 -135 143q1 74 53.5 116.5t159.5 42.5t160 -42.5t53 -116.5q0 -115 -135 -143v-12q164 -19 164 -142q0 -166 -242 -166zM282 275q-170 0 -170 -114q0 -111 170 -111t170 111q0 114 -170 114zM282 549q-143 0 -143 -109
q-1 -57 38 -84.5t105 -27.5t104.5 27.5t38.5 84.5q0 109 -143 109z" />
    <glyph glyph-name="nine.osf" horiz-adv-x="562" 
d="M260 210q87 0 134.5 38t47.5 92q0 58 -45 96t-125 38q-81 0 -119.5 -38t-38.5 -103q0 -123 146 -123zM271 -86q-107 0 -163 46t-72 135l68 12q25 -131 168 -131q94 0 138.5 66.5t44.5 203.5q0 25 -1 43l-10 1q-37 -132 -203 -132q-88 0 -143 43t-55 133q0 92 59.5 147
t170.5 55q248 0 248 -297q0 -149 -60.5 -237t-189.5 -88z" />
    <glyph glyph-name="zero.tf" horiz-adv-x="597" 
d="M298 547q-89 0 -133.5 -66t-44.5 -180t44.5 -181.5t133.5 -67.5t133.5 67.5t44.5 181.5q0 115 -44.5 180.5t-133.5 65.5zM298 611q120 0 185.5 -83.5t65.5 -226.5t-65.5 -227.5t-185.5 -84.5t-185 84.5t-65 227.5q0 142 66 226t184 84z" />
    <glyph glyph-name="one.tf" 
d="M538 0h-472v63h221v472q-58 -32 -203 -89l-24 62l258 92h39v-537h181v-63z" />
    <glyph glyph-name="two.tf" 
d="M326 549q-77 0 -119.5 -43.5t-54.5 -134.5l-68 10q32 230 241 230q102 0 155.5 -45t53.5 -131q0 -80 -55.5 -125.5t-167.5 -78.5q-107 -34 -143.5 -69t-39.5 -107q114 8 209 8h207v-63h-478q-1 15 -1 46q0 99 48 149.5t162 85.5q104 32 146 66.5t42 89.5q0 52 -34 82
t-103 30z" />
    <glyph glyph-name="three.tf" 
d="M318 -10q-224 0 -258 203l70 10q14 -77 58.5 -115t129.5 -38q75 0 115 30.5t40 85.5q0 57 -32 82.5t-116 25.5h-102v56h98q56 0 91 27t35 82q0 58 -32 84.5t-99 26.5q-71 0 -108.5 -34.5t-50.5 -102.5l-68 9q33 188 226 188q201 0 201 -158q0 -112 -125 -143v-10
q86 -8 120 -40t34 -98q0 -80 -56 -125.5t-171 -45.5z" />
    <glyph glyph-name="four.tf" horiz-adv-x="581" 
d="M557 149h-95v-149h-70v149h-365v56l353 395h82v-392h95v-59zM288 208h104v319l-6 2l-285 -322l4 -8q93 9 183 9z" />
    <glyph glyph-name="five.tf" 
d="M316 50q78 0 115.5 32.5t37.5 101.5q0 121 -154 121q-44 0 -86.5 -12t-67.5 -30l-59 23v314h405v-66q-161 0 -341 9v-230q69 47 167 47q101 0 154 -45t53 -132q0 -98 -59.5 -145.5t-166.5 -47.5q-99 0 -162 40.5t-98 127.5l68 24q54 -132 194 -132z" />
    <glyph glyph-name="six.tf" 
d="M326 315q-90 0 -138 -38t-48 -93q0 -57 45.5 -95t127.5 -38q159 0 159 143q0 121 -146 121zM543 193q0 -95 -59.5 -149.5t-173.5 -54.5q-249 0 -249 297q0 149 61.5 237t192.5 88q103 0 152 -46t66 -141l-69 -10q-14 70 -48 102.5t-101 32.5q-97 0 -142 -67t-45 -205v-44
l11 -1q36 135 206 135q88 0 143 -42.5t55 -131.5z" />
    <glyph glyph-name="seven.tf" 
d="M61 535v65h489v-65q-220 -221 -244 -535h-78q12 148 79.5 291t179.5 253q-98 -9 -216 -9h-210z" />
    <glyph glyph-name="eight.tf" 
d="M305 -11q-242 0 -242 166q0 123 164 142v12q-136 28 -135 143q1 74 53.5 116.5t159.5 42.5t160 -42.5t53 -116.5q0 -115 -135 -143v-12q164 -19 164 -142q0 -166 -242 -166zM305 275q-170 0 -170 -114q0 -111 170 -111t170 111q0 114 -170 114zM305 549q-143 0 -143 -109
q-1 -57 38 -84.5t105 -27.5t104.5 27.5t38.5 84.5q0 109 -143 109z" />
    <glyph glyph-name="nine.tf" 
d="M277 285q87 0 134.5 38t47.5 92q0 58 -45 96t-125 38q-81 0 -119.5 -38t-38.5 -103q0 -123 146 -123zM288 -11q-107 0 -163 46t-72 135l68 12q25 -131 168 -131q94 0 138.5 66.5t44.5 203.5q0 25 -1 43l-10 1q-37 -132 -203 -132q-88 0 -143 43t-55 133q0 92 59.5 147
t170.5 55q248 0 248 -297q0 -149 -60.5 -237t-189.5 -88z" />
    <glyph glyph-name="zero.tosf" horiz-adv-x="605" 
d="M302 472q-87 0 -131.5 -56.5t-44.5 -153.5q0 -99 44 -155t132 -56t132 56t44 155q0 97 -44.5 153.5t-131.5 56.5zM302 534q118 0 183 -72.5t65 -199.5t-64.5 -200t-183.5 -73t-183.5 73t-64.5 200t65 199.5t183 72.5z" />
    <glyph glyph-name="one.tosf" 
d="M538 0h-471v60h222v410q-62 -39 -208 -91l-20 59l254 86h44v-464h179v-60z" />
    <glyph glyph-name="two.tosf" 
d="M329 474q-153 0 -170 -161l-68 8q9 98 68.5 155.5t169.5 57.5q100 0 152 -40.5t52 -120.5q0 -65 -50 -104t-167 -70q-110 -29 -147.5 -58t-38.5 -88q90 10 243 10h169v-63h-471q-1 15 -1 46q0 82 47.5 123.5t160.5 71.5q110 30 146.5 57t36.5 74q0 102 -132 102z" />
    <glyph glyph-name="three.tosf" 
d="M318 -85q-224 0 -258 203l70 10q14 -77 58.5 -115t129.5 -38q75 0 115 30.5t40 85.5q0 57 -32 82.5t-116 25.5h-102v56h98q56 0 91 27t35 82q0 58 -32 84.5t-99 26.5q-71 0 -108.5 -34.5t-50.5 -102.5l-68 9q33 188 226 188q201 0 201 -158q0 -112 -125 -143v-10
q86 -8 120 -40t34 -98q0 -80 -56 -125.5t-171 -45.5z" />
    <glyph glyph-name="four.tosf" 
d="M557 73h-95v-149h-70v149h-365v56l353 395h82v-392h95v-59zM288 132h104v319l-6 2l-285 -322l4 -8q93 9 183 9z" />
    <glyph glyph-name="five.tosf" 
d="M316 -26q78 0 115.5 32.5t37.5 101.5q0 121 -154 121q-44 0 -86.5 -12t-67.5 -30l-59 23v314h405v-66q-161 0 -341 9v-230q69 47 167 47q101 0 154 -45t53 -132q0 -98 -59.5 -145.5t-166.5 -47.5q-99 0 -162 40.5t-98 127.5l68 24q54 -132 194 -132z" />
    <glyph glyph-name="six.tosf" 
d="M326 315q-90 0 -138 -38t-48 -93q0 -57 45.5 -95t127.5 -38q159 0 159 143q0 121 -146 121zM543 193q0 -95 -59.5 -149.5t-173.5 -54.5q-249 0 -249 297q0 149 61.5 237t192.5 88q103 0 152 -46t66 -141l-69 -10q-14 70 -48 102.5t-101 32.5q-97 0 -142 -67t-45 -205v-44
l11 -1q36 135 206 135q88 0 143 -42.5t55 -131.5z" />
    <glyph glyph-name="seven.tosf" 
d="M61 459v65h489v-65q-220 -221 -244 -535h-78q12 148 79.5 291t179.5 253q-98 -9 -216 -9h-210z" />
    <glyph glyph-name="eight.tosf" 
d="M305 -11q-242 0 -242 166q0 123 164 142v12q-136 28 -135 143q1 74 53.5 116.5t159.5 42.5t160 -42.5t53 -116.5q0 -115 -135 -143v-12q164 -19 164 -142q0 -166 -242 -166zM305 275q-170 0 -170 -114q0 -111 170 -111t170 111q0 114 -170 114zM305 549q-143 0 -143 -109
q-1 -57 38 -84.5t105 -27.5t104.5 27.5t38.5 84.5q0 109 -143 109z" />
    <glyph glyph-name="nine.tosf" 
d="M277 210q87 0 134.5 38t47.5 92q0 58 -45 96t-125 38q-81 0 -119.5 -38t-38.5 -103q0 -123 146 -123zM288 -86q-107 0 -163 46t-72 135l68 12q25 -131 168 -131q94 0 138.5 66.5t44.5 203.5q0 25 -1 43l-10 1q-37 -132 -203 -132q-88 0 -143 43t-55 133q0 92 59.5 147
t170.5 55q248 0 248 -297q0 -149 -60.5 -237t-189.5 -88z" />
    <glyph glyph-name="dollar.osf" horiz-adv-x="494" 
d="M226 644h55l-4 -120q75 -7 114 -44.5t55 -103.5l-69 -14q-14 56 -44.5 81.5t-88.5 25.5q-55 0 -85 -21.5t-30 -59.5q0 -35 31 -57.5t110 -36.5q105 -18 148 -54.5t43 -96.5q0 -65 -45 -103.5t-139 -41.5l4 -122h-55l4 123q-173 14 -200 168l68 14q25 -127 166 -127
q126 0 126 86q0 41 -32.5 61.5t-113.5 34.5q-100 18 -142.5 54t-42.5 94q0 62 44 99.5t127 41.5z" />
    <glyph glyph-name="sterling.osf" horiz-adv-x="537" 
d="M499 0h-461v62h101q13 44 13 100q0 22 -6 45h-106v47h92q-24 72 -24 119q0 73 45 117t131 44q90 0 133.5 -43.5t56.5 -119.5l-65 -12q-12 58 -41 86t-84 28q-56 0 -81.5 -29t-25.5 -74q0 -41 23 -116h230v-47h-218q4 -24 4 -36q0 -57 -23 -109h306v-62z" />
    <glyph glyph-name="Euro.osf" horiz-adv-x="588" 
d="M320 -11q-96 0 -155 52.5t-76 146.5h-70v43h65q-1 10 -1 31q0 13 2 37h-66v42h71q19 91 79 142.5t153 51.5q94 0 152.5 -52t73.5 -144l-64 -14q-31 150 -163 150q-137 0 -165 -134h177v-42h-183q-2 -12 -2 -37q0 -21 1 -31h184v-43h-178q27 -140 165 -140q73 0 112.5 38
t55.5 115l63 -12q-15 -94 -74 -147t-157 -53z" />
    <glyph glyph-name="yen.osf" horiz-adv-x="562" 
d="M524 143h-206v-143h-73v143h-207v47h198l-56 85h-142v48h110l-125 188v11h77l175 -291h14l175 291h76v-11l-124 -188h108v-48h-140l-56 -85h196v-47z" />
    <glyph glyph-name="a.sc" horiz-adv-x="537" 
d="M460 0l-62 153h-261l-62 -153h-73l221 524h92l220 -524h-75zM185 273l-26 -65h217l-26 65q-43 110 -69 190h-24q-35 -100 -72 -190z" />
    <glyph glyph-name="b.sc" horiz-adv-x="524" 
d="M298 235h-160v-179h166q60 0 90.5 24.5t30.5 65.5q0 44 -29.5 66.5t-97.5 22.5zM291 467h-153v-178h147q113 0 113 92q0 44 -25.5 65t-81.5 21zM68 0v524h219q179 0 179 -134q0 -97 -107 -121v-8q69 -8 102.5 -36.5t33.5 -82.5q0 -66 -46.5 -104t-142.5 -38h-238z" />
    <glyph glyph-name="c.sc" horiz-adv-x="577" 
d="M293 -10q-124 0 -192 73.5t-68 199.5q0 125 69.5 198t193.5 73q103 0 166 -51.5t79 -143.5l-67 -14q-33 147 -179 147q-95 0 -143.5 -56t-48.5 -153q0 -99 48 -155t143 -56q152 0 183 151l67 -12q-15 -95 -79.5 -148t-171.5 -53z" />
    <glyph glyph-name="d.sc" horiz-adv-x="585" 
d="M268 464h-130v-404h136q209 0 209 205q0 103 -51.5 151t-163.5 48zM68 0v524h209q138 0 207 -66t69 -193q0 -124 -73 -194.5t-200 -70.5h-212z" />
    <glyph glyph-name="e.sc" horiz-adv-x="493" 
d="M68 0v524h375v-62h-305v-167h273v-56h-273v-177h304v-62h-374z" />
    <glyph glyph-name="f.sc" horiz-adv-x="460" 
d="M395 215h-256v-215h-71v524h359v-64h-288v-185h256v-60z" />
    <glyph glyph-name="g.sc" horiz-adv-x="594" 
d="M278 -9q-115 0 -181.5 68t-66.5 197t67.5 203.5t197.5 74.5q104 0 165 -50t78 -141l-65 -14q-18 73 -61 108t-117 35q-194 0 -194 -216q0 -205 197 -205q180 0 180 148v-2v11h-181v55h248v-263h-66v120h-7q-44 -129 -194 -129z" />
    <glyph glyph-name="h.sc" horiz-adv-x="591" 
d="M523 0h-70v230h-315v-230h-70v524h70v-231h315v231h70v-524z" />
    <glyph glyph-name="i.sc" horiz-adv-x="206" 
d="M138 0h-70v524h70v-524z" />
    <glyph glyph-name="j.sc" horiz-adv-x="284" 
d="M146 135v389h70v-389q0 -142 -134 -142q-33 0 -69 6l3 62q32 -6 57 -6q73 0 73 80z" />
    <glyph glyph-name="k.sc" horiz-adv-x="519" 
d="M434 0l-247 220h-49v-220h-70v524h70v-246h46l238 246h79v-9l-263 -261l278 -244v-10h-82z" />
    <glyph glyph-name="l.sc" horiz-adv-x="424" 
d="M68 524h70v-463h265v-61h-335v524z" />
    <glyph glyph-name="m.sc" horiz-adv-x="732" 
d="M135 268v-268h-67v524h120l107 -252q34 -83 62 -168h22q39 117 61 170l109 250h115v-524h-70v268q0 24 3 198h-20q-42 -119 -79 -210l-99 -224h-75l-97 227q-41 106 -76 207h-17q1 -30 1 -198z" />
    <glyph glyph-name="n.sc" horiz-adv-x="591" 
d="M428 0l-178 273q-50 76 -100 184h-23q8 -118 8 -254v-203h-67v524h105l158 -240q61 -94 112 -205l22 1q-9 106 -9 240v204h67v-524h-95z" />
    <glyph glyph-name="o.sc" 
d="M305 -10q-130 0 -201.5 74.5t-71.5 198.5q0 123 72.5 197t200.5 74t200 -73.5t72 -197.5t-71.5 -198.5t-200.5 -74.5zM305 52q100 0 151 57t51 154q0 96 -51 152.5t-151 56.5t-151.5 -56.5t-51.5 -152.5q0 -97 51 -154t152 -57z" />
    <glyph glyph-name="p.sc" horiz-adv-x="487" 
d="M272 463h-134v-210h135q66 0 96 25.5t30 79.5q0 56 -28.5 80.5t-98.5 24.5zM280 193h-142v-193h-70v524h211q190 0 190 -165q0 -75 -49.5 -120.5t-139.5 -45.5z" />
    <glyph glyph-name="q.sc" 
d="M305 52q100 0 151 57t51 154q0 96 -51 152.5t-151 56.5t-151.5 -56.5t-51.5 -152.5q0 -97 51 -154t152 -57zM305 -10q-130 0 -201.5 74.5t-71.5 198.5q0 123 72.5 197t200.5 74t200 -73.5t72 -197.5q0 -156 -107 -228l74 -110v-10h-73l-56 93q-48 -18 -110 -18z" />
    <glyph glyph-name="r.sc" horiz-adv-x="542" 
d="M282 464h-144v-193h145q125 0 125 95q0 50 -28.5 74t-97.5 24zM430 0l-165 214h-127v-214h-70v524h220q190 0 190 -157q0 -62 -35 -100.5t-103 -48.5l169 -208v-10h-79z" />
    <glyph glyph-name="s.sc" horiz-adv-x="511" 
d="M267 -10q-212 1 -237 176l67 14q24 -131 172 -131q136 0 136 87q0 41 -33.5 63t-117.5 36q-108 18 -153.5 56.5t-45.5 99.5q0 67 50.5 105t147.5 38q94 0 142 -39.5t66 -115.5l-69 -14q-15 58 -46 84.5t-96 26.5q-126 0 -126 -81q0 -38 32.5 -61t121.5 -39
q111 -21 154 -58t43 -96q0 -151 -208 -151z" />
    <glyph glyph-name="t.sc" horiz-adv-x="471" 
d="M16 460v64h440v-64h-185v-460h-70v460h-185z" />
    <glyph glyph-name="u.sc" horiz-adv-x="583" 
d="M296 53q81 0 115 38t34 110v323h70v-327q0 -101 -56 -154t-163 -53q-109 0 -168.5 53t-59.5 154v327h70v-319q0 -152 158 -152z" />
    <glyph glyph-name="v.sc" horiz-adv-x="536" 
d="M314 0h-91l-221 524h75l110 -272q51 -129 70 -190h24q30 90 71 190l109 272h73z" />
    <glyph glyph-name="w.sc" horiz-adv-x="774" 
d="M318 219l-59 -219h-105l-149 524h78l65 -254q38 -161 48 -209h27q22 107 49 208l72 255h92l72 -255q25 -94 47 -208h27q14 77 48 209l65 254h73l-147 -524h-107l-59 219q-43 164 -59 242h-19q-21 -98 -59 -242z" />
    <glyph glyph-name="x.sc" horiz-adv-x="514" 
d="M425 0l-163 230h-18l-159 -230h-71v10l188 255l-185 250v9h74l158 -226h19l157 226h72v-9l-187 -253l190 -252v-10h-75z" />
    <glyph glyph-name="y.sc" horiz-adv-x="491" 
d="M281 0h-71v181l-212 334v9h75l166 -286h15l165 286h73v-9l-211 -336v-179z" />
    <glyph glyph-name="z.sc" horiz-adv-x="521" 
d="M478 64v-64h-444v62l356 400l-4 8q-135 -10 -192 -10h-149v64h432v-60l-360 -402l5 -9q132 11 206 11h150z" />
    <glyph glyph-name="aacute.sc" horiz-adv-x="537" 
d="M460 0l-62 153h-261l-62 -153h-73l221 524h92l220 -524h-75zM193 579l-17 35l230 134l29 -53zM185 273l-26 -65h217l-26 65q-43 110 -69 190h-24q-35 -100 -72 -190z" />
    <glyph glyph-name="abreve.sc" horiz-adv-x="537" 
d="M460 0l-62 153h-261l-62 -153h-73l221 524h92l220 -524h-75zM268 640q88 0 95 99h42q0 -76 -36 -113t-101 -37t-101 37t-36 113h42q7 -99 95 -99zM185 273l-26 -65h217l-26 65q-43 110 -69 190h-24q-35 -100 -72 -190z" />
    <glyph glyph-name="acircumflex.sc" horiz-adv-x="537" 
d="M460 0l-62 153h-261l-62 -153h-73l221 524h92l220 -524h-75zM386 578l-117 107l-118 -107l-27 29l130 138h30l130 -138zM185 273l-26 -65h217l-26 65q-43 110 -69 190h-24q-35 -100 -72 -190z" />
    <glyph glyph-name="adieresis.sc" horiz-adv-x="537" 
d="M460 0l-62 153h-261l-62 -153h-73l221 524h92l220 -524h-75zM136 693h83v-83h-83v83zM317 693h83v-83h-83v83zM185 273l-26 -65h217l-26 65q-43 110 -69 190h-24q-35 -100 -72 -190z" />
    <glyph glyph-name="agrave.sc" horiz-adv-x="537" 
d="M460 0l-62 153h-261l-62 -153h-73l221 524h92l220 -524h-75zM352 579l-242 115l30 55l229 -135zM185 273l-26 -65h217l-26 65q-43 110 -69 190h-24q-35 -100 -72 -190z" />
    <glyph glyph-name="amacron.sc" horiz-adv-x="537" 
d="M460 0l-62 153h-261l-62 -153h-73l221 524h92l220 -524h-75zM132 668h272v-54h-272v54zM185 273l-26 -65h217l-26 65q-43 110 -69 190h-24q-35 -100 -72 -190z" />
    <glyph glyph-name="aogonek.sc" horiz-adv-x="537" 
d="M535 -157q-33 -6 -61 -6q-109 0 -109 73q0 63 101 90h-6l-62 153h-261l-62 -153h-73l221 524h92l220 -524h-2q-119 -23 -119 -71q0 -39 65 -39q19 0 53 8zM185 273l-26 -65h217l-26 65q-43 110 -69 190h-24q-35 -100 -72 -190z" />
    <glyph glyph-name="aring.sc" horiz-adv-x="537" 
d="M460 0l-62 153h-261l-62 -153h-73l221 524h92l220 -524h-75zM205 688q0 -31 17 -48t47 -17t46.5 17t16.5 48q0 30 -17 47t-46 17q-30 0 -47 -16.5t-17 -47.5zM378 688q0 -50 -29.5 -79t-79.5 -29q-51 0 -80.5 29t-29.5 79q0 49 29.5 78.5t80.5 29.5q50 0 79.5 -29.5
t29.5 -78.5zM185 273l-26 -65h217l-26 65q-43 110 -69 190h-24q-35 -100 -72 -190z" />
    <glyph glyph-name="aringacute.sc" horiz-adv-x="537" 
d="M182 697l-11 38l248 90l19 -60zM212 581q0 -27 15 -42t41 -15t41 15.5t15 42.5t-15 42t-41 15t-41 -15t-15 -43zM370 582q0 -58 -44 -85l209 -497h-75l-62 153h-261l-62 -153h-73l209 496q-45 25 -45 85q0 46 27.5 73t74.5 27t74.5 -27t27.5 -72zM185 273l-26 -65h217
l-26 65q-43 110 -69 190h-24q-35 -100 -72 -190z" />
    <glyph glyph-name="atilde.sc" horiz-adv-x="537" 
d="M460 0l-62 153h-261l-62 -153h-73l221 524h92l220 -524h-75zM198 750q27 0 48.5 -16t33 -36t27 -36t31.5 -16q41 0 38 100h39q3 -24 3 -45q0 -53 -20.5 -80.5t-56.5 -27.5q-25 0 -46 16t-32.5 35.5t-27.5 35.5t-33 16q-24 0 -33 -21.5t-8 -74.5h-39q-3 24 -3 43
q0 53 21 80t58 27zM185 273l-26 -65h217l-26 65q-43 110 -69 190h-24q-35 -100 -72 -190z" />
    <glyph glyph-name="ae.sc" horiz-adv-x="768" 
d="M224 273l-42 -82h161v275h-28q-35 -84 -91 -193zM343 0v135h-190l-70 -135h-75l281 524h429v-62h-305v-167h273v-56h-273v-177h304v-62h-374z" />
    <glyph glyph-name="aeacute.sc" horiz-adv-x="768" 
d="M383 578l-17 35l230 134l29 -53zM343 0v135h-190l-70 -135h-75l281 524h429v-62h-305v-167h273v-56h-273v-177h304v-62h-374zM224 273l-42 -82h161v275h-28q-35 -84 -91 -193z" />
    <glyph glyph-name="cacute.sc" horiz-adv-x="577" 
d="M293 -10q-124 0 -192 73.5t-68 199.5q0 125 69.5 198t193.5 73q103 0 166 -51.5t79 -143.5l-67 -14q-33 147 -179 147q-95 0 -143.5 -56t-48.5 -153q0 -99 48 -155t143 -56q152 0 183 151l67 -12q-15 -95 -79.5 -148t-171.5 -53zM213 589l-17 35l230 134l29 -53z" />
    <glyph glyph-name="ccaron.sc" horiz-adv-x="577" 
d="M293 -10q-124 0 -192 73.5t-68 199.5q0 125 69.5 198t193.5 73q103 0 166 -51.5t79 -143.5l-67 -14q-33 147 -179 147q-95 0 -143.5 -56t-48.5 -153q0 -99 48 -155t143 -56q152 0 183 151l67 -12q-15 -95 -79.5 -148t-171.5 -53zM304 595h-31l-129 138l28 28l117 -106
l117 106l28 -28z" />
    <glyph glyph-name="ccedilla.sc" horiz-adv-x="577" 
d="M293 -10h-8l-17 -43q19 8 42 8q73 0 73 -55q0 -26 -21.5 -47t-67.5 -21q-61 0 -101 29l22 34q38 -25 78 -25q48 0 48 32q0 28 -44 28q-21 0 -43 -6l-27 12l22 57q-104 13 -160 84t-56 186q0 125 69.5 198t193.5 73q103 0 166 -51.5t79 -143.5l-67 -14q-33 147 -179 147
q-95 0 -143.5 -56t-48.5 -153q0 -99 48 -155t143 -56q152 0 183 151l67 -12q-15 -95 -79.5 -148t-171.5 -53z" />
    <glyph glyph-name="ccircumflex.sc" horiz-adv-x="577" 
d="M293 -10q-124 0 -192 73.5t-68 199.5q0 125 69.5 198t193.5 73q103 0 166 -51.5t79 -143.5l-67 -14q-33 147 -179 147q-95 0 -143.5 -56t-48.5 -153q0 -99 48 -155t143 -56q152 0 183 151l67 -12q-15 -95 -79.5 -148t-171.5 -53zM406 588l-117 107l-118 -107l-27 29
l130 138h30l130 -138z" />
    <glyph glyph-name="cdotaccent.sc" horiz-adv-x="577" 
d="M293 -10q-124 0 -192 73.5t-68 199.5q0 125 69.5 198t193.5 73q103 0 166 -51.5t79 -143.5l-67 -14q-33 147 -179 147q-95 0 -143.5 -56t-48.5 -153q0 -99 48 -155t143 -56q152 0 183 151l67 -12q-15 -95 -79.5 -148t-171.5 -53zM245 714h87v-85h-87v85z" />
    <glyph glyph-name="dcaron.sc" horiz-adv-x="585" 
d="M268 464h-130v-404h136q209 0 209 205q0 103 -51.5 151t-163.5 48zM68 0v524h209q138 0 207 -66t69 -193q0 -124 -73 -194.5t-200 -70.5h-212zM312 585h-31l-129 138l28 28l117 -106l117 106l28 -28z" />
    <glyph glyph-name="dcroat.sc" horiz-adv-x="612" 
d="M326 239h-162v-179h136q209 0 209 205q0 103 -51.5 151t-163.5 48h-130v-175h162v-50zM94 0v239h-73v50h73v235h209q138 0 207 -66t69 -193q0 -124 -73 -194.5t-200 -70.5h-212z" />
    <glyph glyph-name="eacute.sc" horiz-adv-x="493" 
d="M68 0v524h375v-62h-305v-167h273v-56h-273v-177h304v-62h-374zM180 579l-17 35l230 134l29 -53z" />
    <glyph glyph-name="ebreve.sc" horiz-adv-x="493" 
d="M68 0v524h375v-62h-305v-167h273v-56h-273v-177h304v-62h-374zM256 640q88 0 95 99h42q0 -76 -36 -113t-101 -37t-101 37t-36 113h42q7 -99 95 -99z" />
    <glyph glyph-name="ecaron.sc" horiz-adv-x="493" 
d="M68 0v524h375v-62h-305v-167h273v-56h-273v-177h304v-62h-374zM271 585h-31l-129 138l28 28l117 -106l117 106l28 -28z" />
    <glyph glyph-name="ecircumflex.sc" horiz-adv-x="493" 
d="M68 0v524h375v-62h-305v-167h273v-56h-273v-177h304v-62h-374zM373 578l-117 107l-118 -107l-27 29l130 138h30l130 -138z" />
    <glyph glyph-name="edieresis.sc" horiz-adv-x="493" 
d="M68 0v524h375v-62h-305v-167h273v-56h-273v-177h304v-62h-374zM124 693h83v-83h-83v83zM305 693h83v-83h-83v83z" />
    <glyph glyph-name="edotaccent.sc" horiz-adv-x="493" 
d="M68 0v524h375v-62h-305v-167h273v-56h-273v-177h304v-62h-374zM212 704h87v-85h-87v85z" />
    <glyph glyph-name="egrave.sc" horiz-adv-x="493" 
d="M68 0v524h375v-62h-305v-167h273v-56h-273v-177h304v-62h-374zM339 579l-242 115l30 55l229 -135z" />
    <glyph glyph-name="emacron.sc" horiz-adv-x="493" 
d="M68 0v524h375v-62h-305v-167h273v-56h-273v-177h304v-62h-374zM120 668h272v-54h-272v54z" />
    <glyph glyph-name="eng.sc" horiz-adv-x="591" 
d="M68 0v524h105l166 -239q54 -80 116 -198h10q-9 126 -9 233v204h67v-539q0 -148 -142 -148q-34 0 -73 6l5 62q33 -6 63 -6q80 0 80 85v15l-198 272q-46 64 -108 187h-23q8 -118 8 -255v-203h-67z" />
    <glyph glyph-name="eogonek.sc" horiz-adv-x="493" 
d="M442 -157q-33 -6 -61 -6q-109 0 -109 73q0 63 101 90h-305v524h375v-62h-305v-167h273v-56h-273v-177h304v-62h-2q-119 -23 -119 -71q0 -39 65 -39q19 0 53 8z" />
    <glyph glyph-name="eth.sc" horiz-adv-x="612" 
d="M326 239h-162v-179h136q209 0 209 205q0 103 -51.5 151t-163.5 48h-130v-175h162v-50zM94 0v239h-73v50h73v235h209q138 0 207 -66t69 -193q0 -124 -73 -194.5t-200 -70.5h-212z" />
    <glyph glyph-name="fi.sc" horiz-adv-x="685" 
d="M395 215h-256v-215h-71v524h359v-64h-288v-185h256v-60zM617 0h-70v524h70v-524z" />
    <glyph glyph-name="fl.sc" horiz-adv-x="903" 
d="M395 215h-256v-215h-71v524h359v-64h-288v-185h256v-60zM547 524h70v-463h265v-61h-335v524z" />
    <glyph glyph-name="gbreve.sc" horiz-adv-x="594" 
d="M278 -9q-115 0 -181.5 68t-66.5 197t67.5 203.5t197.5 74.5q104 0 165 -50t78 -141l-65 -14q-18 73 -61 108t-117 35q-194 0 -194 -216q0 -205 197 -205q180 0 180 148v-2v11h-181v55h248v-263h-66v120h-7q-44 -129 -194 -129zM293 650q88 0 95 99h42q0 -76 -36 -113
t-101 -37t-101 37t-36 113h42q7 -99 95 -99z" />
    <glyph glyph-name="gcircumflex.sc" horiz-adv-x="594" 
d="M278 -9q-115 0 -181.5 68t-66.5 197t67.5 203.5t197.5 74.5q104 0 165 -50t78 -141l-65 -14q-18 73 -61 108t-117 35q-194 0 -194 -216q0 -205 197 -205q180 0 180 148v-2v11h-181v55h248v-263h-66v120h-7q-44 -129 -194 -129zM410 588l-117 107l-118 -107l-27 29
l130 138h30l130 -138z" />
    <glyph glyph-name="gcommaaccent.sc" horiz-adv-x="594" 
d="M278 -9q-115 0 -181.5 68t-66.5 197t67.5 203.5t197.5 74.5q104 0 165 -50t78 -141l-65 -14q-18 73 -61 108t-117 35q-194 0 -194 -216q0 -205 197 -205q180 0 180 148v-2v11h-181v55h248v-263h-66v120h-7q-44 -129 -194 -129zM280 -57h61l-59 -150h-46v8z" />
    <glyph glyph-name="gdotaccent.sc" horiz-adv-x="594" 
d="M278 -9q-115 0 -181.5 68t-66.5 197t67.5 203.5t197.5 74.5q104 0 165 -50t78 -141l-65 -14q-18 73 -61 108t-117 35q-194 0 -194 -216q0 -205 197 -205q180 0 180 148v-2v11h-181v55h248v-263h-66v120h-7q-44 -129 -194 -129zM249 714h87v-85h-87v85z" />
    <glyph glyph-name="hbar.sc" horiz-adv-x="622" 
d="M468 267v98h-315v-98h315zM538 0h-70v206h-315v-206h-70v365h-65v49h65v110h70v-110h315v110h70v-110h66v-49h-66v-365z" />
    <glyph glyph-name="hcircumflex.sc" horiz-adv-x="591" 
d="M523 0h-70v230h-315v-230h-70v524h70v-231h315v231h70v-524zM413 578l-117 107l-118 -107l-27 29l130 138h30l130 -138z" />
    <glyph glyph-name="iacute.sc" horiz-adv-x="206" 
d="M138 0h-70v524h70v-524zM27 579l-17 35l230 134l29 -53z" />
    <glyph glyph-name="ibreve.sc" horiz-adv-x="206" 
d="M138 0h-70v524h70v-524zM103 640q88 0 95 99h42q0 -76 -36 -113t-101 -37t-101 37t-36 113h42q7 -99 95 -99z" />
    <glyph glyph-name="icircumflex.sc" horiz-adv-x="206" 
d="M138 0h-70v524h70v-524zM220 578l-117 107l-118 -107l-27 29l130 138h30l130 -138z" />
    <glyph glyph-name="idieresis.sc" horiz-adv-x="206" 
d="M138 0h-70v524h70v-524zM-29 693h83v-83h-83v83zM152 693h83v-83h-83v83z" />
    <glyph glyph-name="igrave.sc" horiz-adv-x="206" 
d="M138 0h-70v524h70v-524zM186 579l-242 115l30 55l229 -135z" />
    <glyph glyph-name="ij.sc" horiz-adv-x="490" 
d="M138 0h-70v524h70v-524zM352 135v389h70v-389q0 -142 -134 -142q-33 0 -69 6l3 62q31 -6 57 -6q73 0 73 80z" />
    <glyph glyph-name="imacron.sc" horiz-adv-x="206" 
d="M138 0h-70v524h70v-524zM-33 668h272v-54h-272v54z" />
    <glyph glyph-name="iogonek.sc" horiz-adv-x="206" 
d="M138 0q-119 -23 -119 -71q0 -39 65 -39q19 0 53 8l3 -55q-33 -6 -61 -6q-109 0 -109 73q0 63 101 90h-3v524h70v-524z" />
    <glyph glyph-name="itilde.sc" horiz-adv-x="206" 
d="M138 0h-70v524h70v-524zM33 750q27 0 48.5 -16t33 -36t27 -36t31.5 -16q41 0 38 100h39q3 -24 3 -45q0 -53 -20.5 -80.5t-56.5 -27.5q-25 0 -46 16t-32.5 35.5t-27.5 35.5t-33 16q-24 0 -33 -21.5t-8 -74.5h-39q-3 24 -3 43q0 53 21 80t58 27z" />
    <glyph glyph-name="jcircumflex.sc" horiz-adv-x="284" 
d="M146 135v389h70v-389q0 -142 -134 -142q-33 0 -69 6l3 62q32 -6 57 -6q73 0 73 80zM298 578l-117 107l-118 -107l-27 29l130 138h30l130 -138z" />
    <glyph glyph-name="kcommaaccent.sc" horiz-adv-x="519" 
d="M434 0l-247 220h-49v-220h-70v524h70v-246h46l238 246h79v-9l-263 -261l278 -244v-10h-82zM279 -57h61l-59 -150h-46v8z" />
    <glyph glyph-name="lacute.sc" horiz-adv-x="424" 
d="M76 579l-17 35l230 134l29 -53zM68 524h70v-463h265v-61h-335v524z" />
    <glyph glyph-name="lcaron.sc" horiz-adv-x="434" 
d="M329 524h60l-27 -251h-45zM68 524h70v-463h265v-61h-335v524z" />
    <glyph glyph-name="lcommaaccent.sc" horiz-adv-x="424" 
d="M68 524h70v-463h265v-61h-335v524zM222 -57h61l-59 -150h-46v8z" />
    <glyph glyph-name="ldot.sc" horiz-adv-x="429" 
d="M281 332h85v-83h-85v83zM68 524h70v-463h265v-61h-335v524z" />
    <glyph glyph-name="lslash.sc" horiz-adv-x="447" 
d="M81 524h70v-233l138 69v-52l-138 -68v-179h265v-61h-335v205l-66 -33v51l66 33v268z" />
    <glyph glyph-name="nacute.sc" horiz-adv-x="591" 
d="M428 0l-178 273q-50 76 -100 184h-23q8 -118 8 -254v-203h-67v524h105l158 -240q61 -94 112 -205l22 1q-9 106 -9 240v204h67v-524h-95zM220 579l-17 35l230 134l29 -53z" />
    <glyph glyph-name="ncaron.sc" horiz-adv-x="591" 
d="M428 0l-178 273q-50 76 -100 184h-23q8 -118 8 -254v-203h-67v524h105l158 -240q61 -94 112 -205l22 1q-9 106 -9 240v204h67v-524h-95zM311 585h-31l-129 138l28 28l117 -106l117 106l28 -28z" />
    <glyph glyph-name="ncommaaccent.sc" horiz-adv-x="591" 
d="M428 0l-178 273q-50 76 -100 184h-23q8 -118 8 -254v-203h-67v524h105l158 -240q61 -94 112 -205l22 1q-9 106 -9 240v204h67v-524h-95zM282 -57h61l-59 -150h-46v8z" />
    <glyph glyph-name="ntilde.sc" horiz-adv-x="591" 
d="M428 0l-178 273q-50 76 -100 184h-23q8 -118 8 -254v-203h-67v524h105l158 -240q61 -94 112 -205l22 1q-9 106 -9 240v204h67v-524h-95zM225 750q27 0 48.5 -16t33 -36t27 -36t31.5 -16q41 0 38 100h39q3 -24 3 -45q0 -53 -20.5 -80.5t-56.5 -27.5q-25 0 -46 16
t-32.5 35.5t-27.5 35.5t-33 16q-24 0 -33 -21.5t-8 -74.5h-39q-3 24 -3 43q0 53 21 80t58 27z" />
    <glyph glyph-name="oacute.sc" 
d="M305 -10q-130 0 -201.5 74.5t-71.5 198.5q0 123 72.5 197t200.5 74t200 -73.5t72 -197.5t-71.5 -198.5t-200.5 -74.5zM305 52q100 0 151 57t51 154q0 96 -51 152.5t-151 56.5t-151.5 -56.5t-51.5 -152.5q0 -97 51 -154t152 -57zM229 589l-17 35l230 134l29 -53z" />
    <glyph glyph-name="obreve.sc" 
d="M305 -10q-130 0 -201.5 74.5t-71.5 198.5q0 123 72.5 197t200.5 74t200 -73.5t72 -197.5t-71.5 -198.5t-200.5 -74.5zM305 52q100 0 151 57t51 154q0 96 -51 152.5t-151 56.5t-151.5 -56.5t-51.5 -152.5q0 -97 51 -154t152 -57zM305 650q88 0 95 99h42q0 -76 -36 -113
t-101 -37t-101 37t-36 113h42q7 -99 95 -99z" />
    <glyph glyph-name="ocircumflex.sc" 
d="M305 52q100 0 151 57t51 154q0 96 -51 152.5t-151 56.5t-151.5 -56.5t-51.5 -152.5q0 -97 51 -154t152 -57zM305 -10q-130 0 -201.5 74.5t-71.5 198.5q0 123 72.5 197t200.5 74t200 -73.5t72 -197.5t-71.5 -198.5t-200.5 -74.5zM422 588l-117 107l-118 -107l-27 29
l130 138h30l130 -138z" />
    <glyph glyph-name="odieresis.sc" 
d="M305 -10q-130 0 -201.5 74.5t-71.5 198.5q0 123 72.5 197t200.5 74t200 -73.5t72 -197.5t-71.5 -198.5t-200.5 -74.5zM305 52q100 0 151 57t51 154q0 96 -51 152.5t-151 56.5t-151.5 -56.5t-51.5 -152.5q0 -97 51 -154t152 -57zM172 703h83v-83h-83v83zM353 703h83v-83
h-83v83z" />
    <glyph glyph-name="ograve.sc" 
d="M305 -10q-130 0 -201.5 74.5t-71.5 198.5q0 123 72.5 197t200.5 74t200 -73.5t72 -197.5t-71.5 -198.5t-200.5 -74.5zM305 52q100 0 151 57t51 154q0 96 -51 152.5t-151 56.5t-151.5 -56.5t-51.5 -152.5q0 -97 51 -154t152 -57zM388 589l-242 115l30 55l229 -135z" />
    <glyph glyph-name="ohungarumlaut.sc" 
d="M305 -10q-130 0 -201.5 74.5t-71.5 198.5q0 123 72.5 197t200.5 74t200 -73.5t72 -197.5t-71.5 -198.5t-200.5 -74.5zM305 52q100 0 151 57t51 154q0 96 -51 152.5t-151 56.5t-151.5 -56.5t-51.5 -152.5q0 -97 51 -154t152 -57zM231 588l-34 21l90 162l52 -32zM361 589
l-33 23l98 158l51 -34z" />
    <glyph glyph-name="omacron.sc" 
d="M305 -10q-130 0 -201.5 74.5t-71.5 198.5q0 123 72.5 197t200.5 74t200 -73.5t72 -197.5t-71.5 -198.5t-200.5 -74.5zM305 52q100 0 151 57t51 154q0 96 -51 152.5t-151 56.5t-151.5 -56.5t-51.5 -152.5q0 -97 51 -154t152 -57zM169 678h272v-54h-272v54z" />
    <glyph glyph-name="oslash.sc" horiz-adv-x="609" 
d="M99 263q0 -85 37 -138l306 307q-51 42 -137 42q-101 0 -153.5 -57t-52.5 -154zM305 -10q-111 0 -182 57l-46 -47h-56v8l71 70q-60 70 -60 185q0 123 72.5 197t200.5 74q111 0 182 -58l46 48h54v-8l-70 -69q60 -72 60 -184q0 -124 -71.5 -198.5t-200.5 -74.5zM304 49
q102 0 154 58t52 156q0 84 -38 137l-305 -309q51 -42 137 -42z" />
    <glyph glyph-name="oslashacute.sc" horiz-adv-x="609" 
d="M99 263q0 -85 37 -138l306 307q-51 42 -137 42q-101 0 -153.5 -57t-52.5 -154zM305 -10q-111 0 -182 57l-46 -47h-56v8l71 70q-60 70 -60 185q0 123 72.5 197t200.5 74q111 0 182 -58l46 48h54v-8l-70 -69q60 -72 60 -184q0 -124 -71.5 -198.5t-200.5 -74.5zM249 588
l-17 35l230 134l29 -53zM304 49q102 0 154 58t52 156q0 84 -38 137l-305 -309q51 -42 137 -42z" />
    <glyph glyph-name="otilde.sc" 
d="M305 -10q-130 0 -201.5 74.5t-71.5 198.5q0 123 72.5 197t200.5 74t200 -73.5t72 -197.5t-71.5 -198.5t-200.5 -74.5zM305 52q100 0 151 57t51 154q0 96 -51 152.5t-151 56.5t-151.5 -56.5t-51.5 -152.5q0 -97 51 -154t152 -57zM234 760q27 0 48.5 -16t33 -36t27 -36
t31.5 -16q41 0 38 100h39q3 -24 3 -45q0 -53 -20.5 -80.5t-56.5 -27.5q-25 0 -46 16t-32.5 35.5t-27.5 35.5t-33 16q-24 0 -33 -21.5t-8 -74.5h-39q-3 24 -3 43q0 53 21 80t58 27z" />
    <glyph glyph-name="oe.sc" horiz-adv-x="825" 
d="M306 61h75v403h-75q-100 0 -152 -54.5t-52 -146.5q0 -93 51.5 -147.5t152.5 -54.5zM306 0q-130 0 -202 72t-72 191t73 190t201 71h450v-62h-305v-167h273v-56h-273v-177h304v-62h-449z" />
    <glyph glyph-name="racute.sc" horiz-adv-x="542" 
d="M282 464h-144v-193h145q125 0 125 95q0 50 -28.5 74t-97.5 24zM430 0l-165 214h-127v-214h-70v524h220q190 0 190 -157q0 -62 -35 -100.5t-103 -48.5l169 -208v-10h-79zM204 579l-17 35l230 134l29 -53z" />
    <glyph glyph-name="rcaron.sc" horiz-adv-x="542" 
d="M282 464h-144v-193h145q125 0 125 95q0 50 -28.5 74t-97.5 24zM430 0l-165 214h-127v-214h-70v524h220q190 0 190 -157q0 -62 -35 -100.5t-103 -48.5l169 -208v-10h-79zM281 585h-31l-129 138l28 28l117 -106l117 106l28 -28z" />
    <glyph glyph-name="rcommaaccent.sc" horiz-adv-x="542" 
d="M267 -57h61l-59 -150h-46v8zM282 464h-144v-193h145q125 0 125 95q0 50 -28.5 74t-97.5 24zM430 0l-165 214h-127v-214h-70v524h220q190 0 190 -157q0 -62 -35 -100.5t-103 -48.5l169 -208v-10h-79z" />
    <glyph glyph-name="sacute.sc" horiz-adv-x="511" 
d="M267 -10q-212 1 -237 176l67 14q24 -131 172 -131q136 0 136 87q0 41 -33.5 63t-117.5 36q-108 18 -153.5 56.5t-45.5 99.5q0 67 50.5 105t147.5 38q94 0 142 -39.5t66 -115.5l-69 -14q-15 58 -46 84.5t-96 26.5q-126 0 -126 -81q0 -38 32.5 -61t121.5 -39
q111 -21 154 -58t43 -96q0 -151 -208 -151zM177 589l-17 35l230 134l29 -53z" />
    <glyph glyph-name="scaron.sc" horiz-adv-x="511" 
d="M267 -10q-212 1 -237 176l67 14q24 -131 172 -131q136 0 136 87q0 41 -33.5 63t-117.5 36q-108 18 -153.5 56.5t-45.5 99.5q0 67 50.5 105t147.5 38q94 0 142 -39.5t66 -115.5l-69 -14q-15 58 -46 84.5t-96 26.5q-126 0 -126 -81q0 -38 32.5 -61t121.5 -39
q111 -21 154 -58t43 -96q0 -151 -208 -151zM268 595h-31l-129 138l28 28l117 -106l117 106l28 -28z" />
    <glyph glyph-name="scedilla.sc" horiz-adv-x="511" 
d="M267 -10h-18l-17 -43q19 8 42 8q73 0 73 -55q0 -26 -21.5 -47t-67.5 -21q-61 0 -101 29l22 34q38 -25 78 -25q48 0 48 32q0 28 -44 28q-21 0 -43 -6l-27 12l22 58q-162 21 -183 172l67 14q24 -131 172 -131q136 0 136 87q0 41 -33.5 63t-117.5 36q-108 18 -153.5 56.5
t-45.5 99.5q0 67 50.5 105t147.5 38q94 0 142 -39.5t66 -115.5l-69 -14q-15 58 -46 84.5t-96 26.5q-126 0 -126 -81q0 -38 32.5 -61t121.5 -39q111 -21 154 -58t43 -96q0 -151 -208 -151z" />
    <glyph glyph-name="scircumflex.sc" horiz-adv-x="511" 
d="M267 -10q-212 1 -237 176l67 14q24 -131 172 -131q136 0 136 87q0 41 -33.5 63t-117.5 36q-108 18 -153.5 56.5t-45.5 99.5q0 67 50.5 105t147.5 38q94 0 142 -39.5t66 -115.5l-69 -14q-15 58 -46 84.5t-96 26.5q-126 0 -126 -81q0 -38 32.5 -61t121.5 -39
q111 -21 154 -58t43 -96q0 -151 -208 -151zM370 588l-117 107l-118 -107l-27 29l130 138h30l130 -138z" />
    <glyph glyph-name="scommaaccent.sc" horiz-adv-x="511" 
d="M267 -10q-212 1 -237 176l67 14q24 -131 172 -131q136 0 136 87q0 41 -33.5 63t-117.5 36q-108 18 -153.5 56.5t-45.5 99.5q0 67 50.5 105t147.5 38q94 0 142 -39.5t66 -115.5l-69 -14q-15 58 -46 84.5t-96 26.5q-126 0 -126 -81q0 -38 32.5 -61t121.5 -39
q111 -21 154 -58t43 -96q0 -151 -208 -151zM240 -57h61l-59 -150h-46v8z" />
    <glyph glyph-name="tbar.sc" horiz-adv-x="470" 
d="M16 460v64h440v-64h-185v-193h134v-48h-134v-219h-70v219h-135v48h135v193h-185z" />
    <glyph glyph-name="tcaron.sc" horiz-adv-x="471" 
d="M456 460h-185v-460h-70v460h-185v64h440v-64zM251 585h-31l-129 138l28 28l117 -106l117 106l28 -28z" />
    <glyph glyph-name="tcommaaccent.sc" horiz-adv-x="471" 
d="M16 460v64h440v-64h-185v-460h-33l-21 -53q19 8 42 8q73 0 73 -55q0 -26 -21 -47t-68 -21q-61 0 -101 29l22 34q38 -25 78 -25q48 0 48 32q0 28 -44 28q-21 0 -43 -6l-27 12l25 65v459h-185z" />
    <glyph glyph-name="uni021B.sc" horiz-adv-x="471" 
d="M16 460v64h440v-64h-185v-460h-70v460h-185zM223 -57h61l-59 -150h-46v8z" />
    <glyph glyph-name="thorn.sc" horiz-adv-x="503" 
d="M68 524h70v-90h145q191 0 191 -165q0 -77 -49.5 -121.5t-140.5 -44.5h-146v-103h-70v524zM277 373h-139v-210h140q65 0 95.5 25.5t30.5 79.5q0 56 -29 80.5t-98 24.5z" />
    <glyph glyph-name="uacute.sc" horiz-adv-x="583" 
d="M296 53q81 0 115 38t34 110v323h70v-327q0 -101 -56 -154t-163 -53q-109 0 -168.5 53t-59.5 154v327h70v-319q0 -152 158 -152zM216 579l-17 35l230 134l29 -53z" />
    <glyph glyph-name="ubreve.sc" horiz-adv-x="583" 
d="M296 53q81 0 115 38t34 110v323h70v-327q0 -101 -56 -154t-163 -53q-109 0 -168.5 53t-59.5 154v327h70v-319q0 -152 158 -152zM292 640q88 0 95 99h42q0 -76 -36 -113t-101 -37t-101 37t-36 113h42q7 -99 95 -99z" />
    <glyph glyph-name="ucircumflex.sc" horiz-adv-x="583" 
d="M296 53q81 0 115 38t34 110v323h70v-327q0 -101 -56 -154t-163 -53q-109 0 -168.5 53t-59.5 154v327h70v-319q0 -152 158 -152zM409 578l-117 107l-118 -107l-27 29l130 138h30l130 -138z" />
    <glyph glyph-name="udieresis.sc" horiz-adv-x="583" 
d="M296 53q81 0 115 38t34 110v323h70v-327q0 -101 -56 -154t-163 -53q-109 0 -168.5 53t-59.5 154v327h70v-319q0 -152 158 -152zM159 693h83v-83h-83v83zM340 693h83v-83h-83v83z" />
    <glyph glyph-name="ugrave.sc" horiz-adv-x="583" 
d="M296 53q81 0 115 38t34 110v323h70v-327q0 -101 -56 -154t-163 -53q-109 0 -168.5 53t-59.5 154v327h70v-319q0 -152 158 -152zM375 579l-242 115l30 55l229 -135z" />
    <glyph glyph-name="uhungarumlaut.sc" horiz-adv-x="583" 
d="M296 53q81 0 115 38t34 110v323h70v-327q0 -101 -56 -154t-163 -53q-109 0 -168.5 53t-59.5 154v327h70v-319q0 -152 158 -152zM218 578l-34 21l90 162l52 -32zM348 579l-33 23l98 158l51 -34z" />
    <glyph glyph-name="umacron.sc" horiz-adv-x="583" 
d="M296 53q81 0 115 38t34 110v323h70v-327q0 -101 -56 -154t-163 -53q-109 0 -168.5 53t-59.5 154v327h70v-319q0 -152 158 -152zM156 668h272v-54h-272v54z" />
    <glyph glyph-name="uogonek.sc" horiz-adv-x="583" 
d="M296 53q81 0 115 38t34 110v323h70v-327q0 -189 -186 -206q-81 -21 -81 -62q0 -39 65 -39q19 0 53 8l3 -55q-33 -6 -61 -6q-109 0 -109 73q0 53 73 81q-98 5 -151 58t-53 148v327h70v-319q0 -152 158 -152z" />
    <glyph glyph-name="uring.sc" horiz-adv-x="583" 
d="M296 53q81 0 115 38t34 110v323h70v-327q0 -101 -56 -154t-163 -53q-109 0 -168.5 53t-59.5 154v327h70v-319q0 -152 158 -152zM401 688q0 -50 -29.5 -79t-79.5 -29q-51 0 -80.5 29t-29.5 79q0 49 29.5 78.5t80.5 29.5q50 0 79.5 -29.5t29.5 -78.5zM228 688q0 -31 17 -48
t47 -17t46.5 17t16.5 48q0 30 -16.5 47t-46.5 17t-47 -16.5t-17 -47.5z" />
    <glyph glyph-name="utilde.sc" horiz-adv-x="583" 
d="M296 53q81 0 115 38t34 110v323h70v-327q0 -101 -56 -154t-163 -53q-109 0 -168.5 53t-59.5 154v327h70v-319q0 -152 158 -152zM221 750q27 0 48.5 -16t33 -36t27 -36t31.5 -16q41 0 38 100h39q3 -24 3 -45q0 -53 -20.5 -80.5t-56.5 -27.5q-25 0 -46 16t-32.5 35.5
t-27.5 35.5t-33 16q-24 0 -33 -21.5t-8 -74.5h-39q-3 24 -3 43q0 53 21 80t58 27z" />
    <glyph glyph-name="wacute.sc" horiz-adv-x="774" 
d="M318 219l-59 -219h-105l-149 524h78l65 -254q38 -161 48 -209h27q22 107 49 208l72 255h92l72 -255q25 -94 47 -208h27q14 77 48 209l65 254h73l-147 -524h-107l-59 219q-43 164 -59 242h-19q-21 -98 -59 -242zM312 579l-17 35l230 134l29 -53z" />
    <glyph glyph-name="wcircumflex.sc" horiz-adv-x="774" 
d="M318 219l-59 -219h-105l-149 524h78l65 -254q38 -161 48 -209h27q22 107 49 208l72 255h92l72 -255q25 -94 47 -208h27q14 77 48 209l65 254h73l-147 -524h-107l-59 219q-43 164 -59 242h-19q-21 -98 -59 -242zM505 578l-117 107l-118 -107l-27 29l130 138h30l130 -138z
" />
    <glyph glyph-name="wdieresis.sc" horiz-adv-x="774" 
d="M318 219l-59 -219h-105l-149 524h78l65 -254q38 -161 48 -209h27q22 107 49 208l72 255h92l72 -255q25 -94 47 -208h27q14 77 48 209l65 254h73l-147 -524h-107l-59 219q-43 164 -59 242h-19q-21 -98 -59 -242zM256 693h83v-83h-83v83zM437 693h83v-83h-83v83z" />
    <glyph glyph-name="wgrave.sc" horiz-adv-x="774" 
d="M318 219l-59 -219h-105l-149 524h78l65 -254q38 -161 48 -209h27q22 107 49 208l72 255h92l72 -255q25 -94 47 -208h27q14 77 48 209l65 254h73l-147 -524h-107l-59 219q-43 164 -59 242h-19q-21 -98 -59 -242zM472 579l-242 115l30 55l229 -135z" />
    <glyph glyph-name="yacute.sc" horiz-adv-x="491" 
d="M281 0h-71v181l-212 334v9h75l166 -286h15l165 286h73v-9l-211 -336v-179zM170 579l-17 35l230 134l29 -53z" />
    <glyph glyph-name="ycircumflex.sc" horiz-adv-x="491" 
d="M281 0h-71v181l-212 334v9h75l166 -286h15l165 286h73v-9l-211 -336v-179zM362 578l-117 107l-118 -107l-27 29l130 138h30l130 -138z" />
    <glyph glyph-name="ydieresis.sc" horiz-adv-x="491" 
d="M281 0h-71v181l-212 334v9h75l166 -286h15l165 286h73v-9l-211 -336v-179zM113 693h83v-83h-83v83zM294 693h83v-83h-83v83z" />
    <glyph glyph-name="zacute.sc" horiz-adv-x="521" 
d="M478 64v-64h-444v62l356 400l-4 8q-135 -10 -192 -10h-149v64h432v-60l-360 -402l5 -9q132 11 206 11h150zM180 579l-17 35l230 134l29 -53z" />
    <glyph glyph-name="zcaron.sc" horiz-adv-x="521" 
d="M478 64v-64h-444v62l356 400l-4 8q-135 -10 -192 -10h-149v64h432v-60l-360 -402l5 -9q132 11 206 11h150zM271 585h-31l-129 138l28 28l117 -106l117 106l28 -28z" />
    <glyph glyph-name="zdotaccent.sc" horiz-adv-x="521" 
d="M478 64v-64h-444v62l356 400l-4 8q-135 -10 -192 -10h-149v64h432v-60l-360 -402l5 -9q132 11 206 11h150zM213 704h87v-85h-87v85z" />
    <glyph glyph-name="germandbls.sc" horiz-adv-x="584" 
d="M389 -10q-124 0 -185 94l41 44q50 -77 142 -77q96 0 96 74q0 35 -24 53.5t-72 33.5q-62 19 -95 45t-33 72q0 87 141 134l-3 10q-72 -8 -133 -8q-126 0 -126 -142v-323h-70v330q0 95 51 144.5t150 49.5h204v-59q-80 -34 -114.5 -61.5t-34.5 -58.5q0 -30 22.5 -47t69.5 -32
q68 -23 101 -54.5t33 -85.5q0 -60 -40 -98t-121 -38z" />
    <glyph glyph-name="a.alt" horiz-adv-x="535" 
d="M247 51q70 0 111.5 44t41.5 118v36q0 74 -42 119t-111 45q-144 0 -144 -182q0 -92 35.5 -136t108.5 -44zM35 231q0 118 49 181.5t137 63.5q135 0 173 -137h6v126h68v-465h-68v125h-6q-18 -62 -62.5 -99t-111.5 -37q-89 0 -137 62.5t-48 179.5z" />
    <glyph glyph-name="aacute.alt" horiz-adv-x="535" 
d="M186 524l-17 35l230 134l29 -53zM247 51q70 0 111.5 44t41.5 118v36q0 74 -42 119t-111 45q-144 0 -144 -182q0 -92 35.5 -136t108.5 -44zM35 231q0 118 49 181.5t137 63.5q135 0 173 -137h6v126h68v-465h-68v125h-6q-18 -62 -62.5 -99t-111.5 -37q-89 0 -137 62.5
t-48 179.5z" />
    <glyph glyph-name="abreve.alt" horiz-adv-x="535" 
d="M259 585q88 0 95 99h42q0 -76 -36 -113t-101 -37t-101 37t-36 113h42q7 -99 95 -99zM247 51q70 0 111.5 44t41.5 118v36q0 74 -42 119t-111 45q-144 0 -144 -182q0 -92 35.5 -136t108.5 -44zM35 231q0 118 49 181.5t137 63.5q135 0 173 -137h6v126h68v-465h-68v125h-6
q-18 -62 -62.5 -99t-111.5 -37q-89 0 -137 62.5t-48 179.5z" />
    <glyph glyph-name="acircumflex.alt" horiz-adv-x="535" 
d="M374 523l-117 107l-118 -107l-27 29l130 138h30l130 -138zM247 51q70 0 111.5 44t41.5 118v36q0 74 -42 119t-111 45q-144 0 -144 -182q0 -92 35.5 -136t108.5 -44zM35 231q0 118 49 181.5t137 63.5q135 0 173 -137h6v126h68v-465h-68v125h-6q-18 -62 -62.5 -99
t-111.5 -37q-89 0 -137 62.5t-48 179.5z" />
    <glyph glyph-name="adieresis.alt" horiz-adv-x="535" 
d="M124 638h83v-83h-83v83zM305 638h83v-83h-83v83zM247 51q70 0 111.5 44t41.5 118v36q0 74 -42 119t-111 45q-144 0 -144 -182q0 -92 35.5 -136t108.5 -44zM35 231q0 118 49 181.5t137 63.5q135 0 173 -137h6v126h68v-465h-68v125h-6q-18 -62 -62.5 -99t-111.5 -37
q-89 0 -137 62.5t-48 179.5z" />
    <glyph glyph-name="agrave.alt" horiz-adv-x="535" 
d="M343 524l-242 115l30 55l229 -135zM247 51q70 0 111.5 44t41.5 118v36q0 74 -42 119t-111 45q-144 0 -144 -182q0 -92 35.5 -136t108.5 -44zM35 231q0 118 49 181.5t137 63.5q135 0 173 -137h6v126h68v-465h-68v125h-6q-18 -62 -62.5 -99t-111.5 -37q-89 0 -137 62.5
t-48 179.5z" />
    <glyph glyph-name="amacron.alt" horiz-adv-x="535" 
d="M121 613h272v-54h-272v54zM247 51q70 0 111.5 44t41.5 118v36q0 74 -42 119t-111 45q-144 0 -144 -182q0 -92 35.5 -136t108.5 -44zM35 231q0 118 49 181.5t137 63.5q135 0 173 -137h6v126h68v-465h-68v125h-6q-18 -62 -62.5 -99t-111.5 -37q-89 0 -137 62.5t-48 179.5z
" />
    <glyph glyph-name="aogonek.alt" horiz-adv-x="535" 
d="M247 51q70 0 111.5 44t41.5 118v36q0 74 -42 119t-111 45q-144 0 -144 -182q0 -92 35.5 -136t108.5 -44zM35 231q0 118 49 181.5t137 63.5q135 0 173 -137h6v126h68v-465q-119 -23 -119 -71q0 -39 65 -39q19 0 53 8l3 -55q-33 -6 -61 -6q-109 0 -109 73q0 63 101 90h-1
v125h-6q-18 -62 -62.5 -99t-111.5 -37q-89 0 -137 62.5t-48 179.5z" />
    <glyph glyph-name="aring.alt" horiz-adv-x="535" 
d="M192 632q0 -31 17 -48t47 -17t46.5 17t16.5 48q0 30 -16.5 47t-46.5 17t-47 -16.5t-17 -47.5zM365 632q0 -50 -29.5 -79t-79.5 -29q-51 0 -80.5 29t-29.5 79q0 49 29.5 78.5t80.5 29.5q50 0 79.5 -29.5t29.5 -78.5zM247 51q70 0 111.5 44t41.5 118v36q0 74 -42 119
t-111 45q-144 0 -144 -182q0 -92 35.5 -136t108.5 -44zM35 231q0 118 49 181.5t137 63.5q135 0 173 -137h6v126h68v-465h-68v125h-6q-18 -62 -62.5 -99t-111.5 -37q-89 0 -137 62.5t-48 179.5z" />
    <glyph glyph-name="aringacute.alt" horiz-adv-x="535" 
d="M178 735l-12 45l246 70l15 -55zM198 611q0 -27 15 -42t41 -15t41 15.5t15 42.5t-15 42t-41 15t-41 -15t-15 -43zM356 612q0 -45 -27.5 -72.5t-74.5 -27.5t-74.5 27t-27.5 72q0 46 27.5 73t74.5 27t74.5 -27t27.5 -72zM247 51q70 0 111.5 44t41.5 118v36q0 74 -42 119
t-111 45q-144 0 -144 -182q0 -92 35.5 -136t108.5 -44zM35 231q0 118 49 181.5t137 63.5q135 0 173 -137h6v126h68v-465h-68v125h-6q-18 -62 -62.5 -99t-111.5 -37q-89 0 -137 62.5t-48 179.5z" />
    <glyph glyph-name="atilde.alt" horiz-adv-x="535" 
d="M185 695q27 0 48.5 -16.5t33 -35.5t27 -35.5t31.5 -16.5q41 0 38 100h39q3 -24 3 -45q0 -53 -20.5 -80.5t-56.5 -27.5q-25 0 -46 16t-32.5 35.5t-27.5 35.5t-33 16q-24 0 -33 -21.5t-8 -74.5h-39q-3 24 -3 43q0 53 21 80t58 27zM247 51q70 0 111.5 44t41.5 118v36
q0 74 -42 119t-111 45q-144 0 -144 -182q0 -92 35.5 -136t108.5 -44zM35 231q0 118 49 181.5t137 63.5q135 0 173 -137h6v126h68v-465h-68v125h-6q-18 -62 -62.5 -99t-111.5 -37q-89 0 -137 62.5t-48 179.5z" />
    <glyph glyph-name="G.alt" horiz-adv-x="625" 
d="M590 250q0 -116 -65.5 -188t-201.5 -72q-139 0 -215.5 77.5t-76.5 225.5q0 147 73.5 232.5t213.5 85.5q114 0 180.5 -56.5t84.5 -159.5l-68 -15q-37 166 -196 166q-215 0 -215 -253q0 -241 221 -241q196 0 196 189h-200v63h269v-54z" />
    <glyph glyph-name="Gbreve.alt" horiz-adv-x="625" 
d="M590 250q0 -116 -65.5 -188t-201.5 -72q-139 0 -215.5 77.5t-76.5 225.5q0 147 73.5 232.5t213.5 85.5q114 0 180.5 -56.5t84.5 -159.5l-68 -15q-37 166 -196 166q-215 0 -215 -253q0 -241 221 -241q196 0 196 189h-200v63h269v-54zM317 707q88 0 95 85h42
q0 -69 -36.5 -103t-100.5 -34t-100.5 34t-36.5 103h42q7 -85 95 -85z" />
    <glyph glyph-name="Gcircumflex.alt" horiz-adv-x="625" 
d="M590 250q0 -116 -65.5 -188t-201.5 -72q-139 0 -215.5 77.5t-76.5 225.5q0 147 73.5 232.5t213.5 85.5q114 0 180.5 -56.5t84.5 -159.5l-68 -15q-37 166 -196 166q-215 0 -215 -253q0 -241 221 -241q196 0 196 189h-200v63h269v-54zM436 649l-119 88l-120 -88l-24 31
l129 114h30l129 -114z" />
    <glyph glyph-name="Gcommaaccent.alt" horiz-adv-x="625" 
d="M590 250q0 -116 -65.5 -188t-201.5 -72q-139 0 -215.5 77.5t-76.5 225.5q0 147 73.5 232.5t213.5 85.5q114 0 180.5 -56.5t84.5 -159.5l-68 -15q-37 166 -196 166q-215 0 -215 -253q0 -241 221 -241q196 0 196 189h-200v63h269v-54zM304 -57h61l-59 -150h-46v8z" />
    <glyph glyph-name="Gdotaccent.alt" horiz-adv-x="625" 
d="M590 250q0 -116 -65.5 -188t-201.5 -72q-139 0 -215.5 77.5t-76.5 225.5q0 147 73.5 232.5t213.5 85.5q114 0 180.5 -56.5t84.5 -159.5l-68 -15q-37 166 -196 166q-215 0 -215 -253q0 -241 221 -241q196 0 196 189h-200v63h269v-54zM274 769h87v-85h-87v85z" />
    <glyph glyph-name="g.sc.alt" horiz-adv-x="586" 
d="M480 213h-178v53h244v-47q0 -101 -61.5 -165t-188.5 -64t-196 69.5t-69 203.5q0 125 67 198t195 73q106 0 168 -49.5t78 -139.5l-66 -14q-32 140 -179 140q-192 0 -192 -208q0 -211 197 -211q181 0 181 161z" />
    <glyph glyph-name="gbreve.sc.alt" horiz-adv-x="586" 
d="M480 213h-178v53h244v-47q0 -101 -61.5 -165t-188.5 -64t-196 69.5t-69 203.5q0 125 67 198t195 73q106 0 168 -49.5t78 -139.5l-66 -14q-32 140 -179 140q-192 0 -192 -208q0 -211 197 -211q181 0 181 161zM292 650q88 0 95 99h42q0 -76 -36 -113t-101 -37t-101 37
t-36 113h42q7 -99 95 -99z" />
    <glyph glyph-name="gcircumflex.sc.alt" horiz-adv-x="586" 
d="M480 213h-178v53h244v-47q0 -101 -61.5 -165t-188.5 -64t-196 69.5t-69 203.5q0 125 67 198t195 73q106 0 168 -49.5t78 -139.5l-66 -14q-32 140 -179 140q-192 0 -192 -208q0 -211 197 -211q181 0 181 161zM408 588l-117 107l-118 -107l-27 29l130 138h30l130 -138z" />
    <glyph glyph-name="gcommaaccent.sc.alt" horiz-adv-x="586" 
d="M480 213h-178v53h244v-47q0 -101 -61.5 -165t-188.5 -64t-196 69.5t-69 203.5q0 125 67 198t195 73q106 0 168 -49.5t78 -139.5l-66 -14q-32 140 -179 140q-192 0 -192 -208q0 -211 197 -211q181 0 181 161zM280 -57h61l-59 -150h-46v8z" />
    <glyph glyph-name="gdotaccent.sc.alt" horiz-adv-x="586" 
d="M480 213h-178v53h244v-47q0 -101 -61.5 -165t-188.5 -64t-196 69.5t-69 203.5q0 125 67 198t195 73q106 0 168 -49.5t78 -139.5l-66 -14q-32 140 -179 140q-192 0 -192 -208q0 -211 197 -211q181 0 181 161zM246 714h87v-85h-87v85z" />
    <glyph glyph-name="g.alt" horiz-adv-x="535" 
d="M247 84q70 0 111.5 40.5t41.5 108.5v18q0 72 -42 117t-111 45q-144 0 -144 -165q0 -164 144 -164zM35 247q0 111 49 170t137 59q135 0 173 -137h6v126h68v-414q0 -106 -54.5 -160t-161.5 -54q-186 0 -217 138l68 16q22 -96 147 -96q83 0 116.5 39.5t33.5 116.5v95h-7
q-20 -54 -64.5 -87.5t-108.5 -33.5q-89 0 -137 57.5t-48 164.5z" />
    <glyph glyph-name="gbreve.alt" horiz-adv-x="535" 
d="M256 585q88 0 95 99h42q0 -76 -36 -113t-101 -37t-101 37t-36 113h42q7 -99 95 -99zM247 84q70 0 111.5 40.5t41.5 108.5v18q0 72 -42 117t-111 45q-144 0 -144 -165q0 -164 144 -164zM35 247q0 111 49 170t137 59q135 0 173 -137h6v126h68v-414q0 -106 -54.5 -160
t-161.5 -54q-186 0 -217 138l68 16q22 -96 147 -96q83 0 116.5 39.5t33.5 116.5v95h-7q-20 -54 -64.5 -87.5t-108.5 -33.5q-89 0 -137 57.5t-48 164.5z" />
    <glyph glyph-name="gcircumflex.alt" horiz-adv-x="535" 
d="M370 523l-117 107l-118 -107l-27 29l130 138h30l130 -138zM247 84q70 0 111.5 40.5t41.5 108.5v18q0 72 -42 117t-111 45q-144 0 -144 -165q0 -164 144 -164zM35 247q0 111 49 170t137 59q135 0 173 -137h6v126h68v-414q0 -106 -54.5 -160t-161.5 -54q-186 0 -217 138
l68 16q22 -96 147 -96q83 0 116.5 39.5t33.5 116.5v95h-7q-20 -54 -64.5 -87.5t-108.5 -33.5q-89 0 -137 57.5t-48 164.5z" />
    <glyph glyph-name="gcommaaccent.alt" horiz-adv-x="535" 
d="M273 547h-61l59 150h47v-8zM247 84q70 0 111.5 40.5t41.5 108.5v18q0 72 -42 117t-111 45q-144 0 -144 -165q0 -164 144 -164zM35 247q0 111 49 170t137 59q135 0 173 -137h6v126h68v-414q0 -106 -54.5 -160t-161.5 -54q-186 0 -217 138l68 16q22 -96 147 -96
q83 0 116.5 39.5t33.5 116.5v95h-7q-20 -54 -64.5 -87.5t-108.5 -33.5q-89 0 -137 57.5t-48 164.5z" />
    <glyph glyph-name="gdotaccent.alt" horiz-adv-x="535" 
d="M213 649h87v-85h-87v85zM247 84q70 0 111.5 40.5t41.5 108.5v18q0 72 -42 117t-111 45q-144 0 -144 -165q0 -164 144 -164zM35 247q0 111 49 170t137 59q135 0 173 -137h6v126h68v-414q0 -106 -54.5 -160t-161.5 -54q-186 0 -217 138l68 16q22 -96 147 -96
q83 0 116.5 39.5t33.5 116.5v95h-7q-20 -54 -64.5 -87.5t-108.5 -33.5q-89 0 -137 57.5t-48 164.5z" />
    <glyph glyph-name="t.alt" horiz-adv-x="301" 
d="M165 0h-68v406h-76v59h76v134h68v-134h116v-59h-116v-406z" />
    <glyph glyph-name="tbar.alt" horiz-adv-x="301" 
d="M165 0h-68v205h-66v48h66v153h-76v59h76v134h68v-134h116v-59h-116v-153h101v-48h-101v-205z" />
    <glyph glyph-name="tcaron.alt" horiz-adv-x="304" 
d="M241 674h57l-19 -161h-41zM165 0h-68v406h-76v59h76v134h68v-134h116v-59h-116v-406z" />
    <glyph glyph-name="tcommaaccent.alt" horiz-adv-x="301" 
d="M165 0h-29l-21 -53q19 8 42 8q73 0 73 -55q0 -26 -21 -47t-68 -21q-61 0 -101 29l22 34q38 -25 78 -25q48 0 48 32q0 28 -44 28q-21 0 -43 -6l-27 12l25 64h-2v406h-76v59h76v134h68v-134h116v-59h-116v-406z" />
    <glyph glyph-name="uni021B.alt" horiz-adv-x="301" 
d="M165 0h-68v406h-76v59h76v134h68v-134h116v-59h-116v-406zM113 -57h61l-59 -150h-46v8z" />
    <glyph glyph-name="zero.sc" horiz-adv-x="527" 
d="M264 473q-81 0 -121.5 -56t-40.5 -154t40 -155t121 -57t121.5 57t40.5 155t-40 154t-121 56zM264 534q110 0 170.5 -73t60.5 -198q0 -126 -60 -199.5t-171 -73.5t-171.5 73.5t-60.5 199.5q0 125 61 198t171 73z" />
    <glyph glyph-name="one.sc" horiz-adv-x="429" 
d="M394 0h-352v61h160v404q-56 -29 -146 -63l-22 59l195 63h42v-463h123v-61z" />
    <glyph glyph-name="two.sc" horiz-adv-x="522" 
d="M280 475q-136 0 -158 -151l-65 9q29 201 223 201q94 0 144 -40t50 -116q0 -70 -52 -110t-155 -68q-98 -28 -131.5 -58t-34.5 -92q104 10 190 10h191v-60h-442q-1 14 -1 42q0 86 44.5 130.5t148.5 74.5q96 28 134 57t38 76q0 44 -30.5 69.5t-93.5 25.5z" />
    <glyph glyph-name="three.sc" horiz-adv-x="516" 
d="M271 -9q-207 0 -239 177l69 9q12 -64 52.5 -96.5t117.5 -32.5q68 0 104 26t36 73t-28.5 68.5t-105.5 21.5h-93v53h91q50 0 81.5 22.5t31.5 69.5q0 50 -29 72t-90 22q-64 0 -97.5 -29t-46.5 -87l-65 8q30 165 209 165q186 0 186 -139q0 -98 -116 -124v-9q79 -7 110.5 -35
t31.5 -86q0 -70 -51.5 -109.5t-158.5 -39.5z" />
    <glyph glyph-name="four.sc" horiz-adv-x="534" 
d="M512 128h-86v-128h-69v128h-334v53l322 343h81v-338h86v-58zM267 186h90v272l-6 1l-256 -276l4 -6q103 9 168 9z" />
    <glyph glyph-name="five.sc" horiz-adv-x="526" 
d="M273 48q138 0 138 113q0 102 -139 102q-88 0 -140 -35l-58 21v275h376v-65q-171 0 -313 8v-192q64 40 153 40q93 0 141.5 -39.5t48.5 -115.5q0 -86 -55 -127.5t-155 -41.5q-92 0 -150 35.5t-89 114.5l67 19q48 -112 175 -112z" />
    <glyph glyph-name="six.sc" horiz-adv-x="524" 
d="M280 272q-81 0 -124.5 -32.5t-43.5 -78.5q0 -48 41.5 -80t115.5 -32q143 0 143 121q0 102 -132 102zM481 168q0 -83 -55 -130.5t-160 -47.5q-230 0 -230 262q0 129 56.5 205.5t178.5 76.5q96 0 141 -40.5t59 -123.5l-66 -9q-13 59 -43.5 86.5t-91.5 27.5
q-88 0 -128.5 -57.5t-40.5 -176.5v-36l10 -1q34 116 189 116q81 0 131 -37t50 -115z" />
    <glyph glyph-name="seven.sc" horiz-adv-x="476" 
d="M14 460v64h451v-63q-199 -188 -222 -461h-76q11 129 71.5 251t162.5 216q-103 -7 -195 -7h-192z" />
    <glyph glyph-name="eight.sc" horiz-adv-x="517" 
d="M258 -10q-223 0 -223 146q0 107 151 124v9q-126 25 -125 125q0 66 49 103t148 37t148 -37t49 -103q0 -101 -124 -124v-10q151 -18 151 -124q0 -146 -224 -146zM258 238q-154 0 -154 -96q0 -94 154 -94t154 94q0 96 -154 96zM258 475q-129 0 -129 -93q-1 -47 34 -70
t95 -24q130 2 130 94q0 93 -130 93z" />
    <glyph glyph-name="nine.sc" horiz-adv-x="525" 
d="M246 251q79 0 121.5 32.5t42.5 78.5q0 49 -41 81t-113 32q-73 0 -107.5 -32t-34.5 -87q0 -105 132 -105zM255 -10q-187 0 -217 158l67 12q22 -111 151 -111q86 0 126 57.5t40 175.5q0 20 -1 34l-10 1q-35 -113 -184 -113q-81 0 -132 37t-51 116q0 81 55 129t158 48
q230 0 230 -261q0 -129 -56 -206t-176 -77z" />
    <glyph glyph-name="periodcentered.sc" horiz-adv-x="195" 
d="M50 309h94v-94h-94v94z" />
    <glyph glyph-name="bullet.sc" horiz-adv-x="261" 
d="M58 345h146v-146h-146v146z" />
    <glyph glyph-name="ampersand.sc" horiz-adv-x="630" 
d="M198 390q0 -39 21 -89q76 20 113 47.5t37 68.5q0 65 -77 65q-44 0 -69 -24t-25 -68zM599 60l1 -62q-23 -4 -49 -4q-91 0 -181 54q-69 -57 -172 -57q-78 0 -123.5 36t-45.5 103q0 104 132 153q-27 62 -27 107q0 70 45 107t112 37q69 0 104 -31t35 -81q0 -34 -17.5 -61
t-49 -44t-61 -27.5t-68.5 -19.5q56 -100 156 -161q90 92 109 211l61 -8q-16 -133 -134 -223q65 -31 128 -31q31 0 45 2zM214 46q62 0 118 27q-99 73 -158 182q-82 -34 -82 -114q0 -44 32 -69.5t90 -25.5z" />
    <glyph glyph-name="hyphen.sc" horiz-adv-x="350" 
d="M23 296h304v-66h-304v66z" />
    <glyph glyph-name="endash.sc" horiz-adv-x="476" 
d="M23 296h430v-63h-430v63z" />
    <glyph glyph-name="emdash.sc" horiz-adv-x="860" 
d="M23 296h814v-63h-814v63z" />
    <glyph glyph-name="parenleft.sc" horiz-adv-x="306" 
d="M128 258q0 -111 37.5 -201t124.5 -176l-40 -35q-192 167 -192 412q0 244 188 407l40 -35q-86 -82 -122 -172t-36 -200z" />
    <glyph glyph-name="parenright.sc" horiz-adv-x="306" 
d="M178 257q0 111 -37 200.5t-125 175.5l40 35q192 -166 192 -411q0 -244 -188 -407l-40 35q86 82 122 172t36 200z" />
    <glyph glyph-name="bracketleft.sc" horiz-adv-x="272" 
d="M66 -133v775h184v-55h-115v-665h115v-55h-184z" />
    <glyph glyph-name="bracketright.sc" horiz-adv-x="272" 
d="M22 -130v55h115v665h-115v54h183v-774h-183z" />
    <glyph glyph-name="braceleft.sc" horiz-adv-x="341" 
d="M317 -130q-51 -3 -67 -3q-73 0 -109 29.5t-35 78.5q0 39 38.5 97t38.5 87q0 36 -23.5 53t-75.5 17h-63v57h63q44 0 72 17t28 52q0 30 -37 88.5t-37 98.5q-1 49 35 78t109 29q40 0 67 -3v-53q-20 1 -55 1q-49 0 -69 -15t-20 -47q0 -26 32.5 -80.5t32.5 -90.5
q0 -82 -117 -99v-8q63 -6 90 -29t27 -68q0 -36 -34.5 -91t-34.5 -81q0 -32 20 -47t69 -15q35 0 55 1v-54z" />
    <glyph glyph-name="braceright.sc" horiz-adv-x="341" 
d="M87 -133q-31 0 -67 2v54q20 -1 55 -1q49 0 69 15t20 47q0 26 -32.5 80.5t-32.5 90.5q0 82 117 99v8q-63 6 -90 29t-27 68q0 36 34.5 91t34.5 81q0 32 -20 47t-69 15q-35 0 -55 -1v54q34 2 67 2q73 0 108.5 -29t35.5 -78q0 -39 -38.5 -97t-38.5 -87q0 -36 23.5 -53
t75.5 -17h63v-57h-63q-44 0 -72 -17t-28 -53q0 -29 37 -87.5t37 -98.5q1 -49 -35 -78t-109 -29z" />
    <glyph glyph-name="dollar.sc" horiz-adv-x="508" 
d="M232 623h60l-4 -97q76 -7 116.5 -44.5t56.5 -102.5l-70 -14q-14 56 -45.5 82t-96.5 26q-126 0 -126 -80q0 -36 33 -59t122 -39q111 -21 154 -58t43 -95q0 -138 -187 -146l4 -105h-60l4 106q-183 14 -206 169l67 14q23 -128 172 -128q136 0 136 85q0 40 -33.5 62
t-117.5 36q-109 18 -154 56t-45 98q0 62 46.5 98.5t134.5 40.5z" />
    <glyph glyph-name="sterling.sc" horiz-adv-x="506" 
d="M472 0h-436v59h92q11 35 11 83q0 23 -7 56h-95v53h81q-23 77 -23 130q0 71 45 111.5t131 40.5q90 0 132 -44t57 -124l-63 -13q-14 64 -42 93t-84 29q-108 0 -108 -100q0 -41 21 -123h214v-53h-202q3 -20 3 -38q0 -59 -24 -101h297v-59z" />
    <glyph glyph-name="yen.sc" horiz-adv-x="522" 
d="M486 148h-190v-148h-71v148h-189v48h179l-47 74h-132v49h101l-124 196v9h75l166 -286h15l165 286h73v-9l-123 -196h102v-49h-133l-46 -74h179v-48z" />
    <glyph glyph-name="Euro.sc" horiz-adv-x="601" 
d="M325 -10q-100 0 -161.5 53t-78.5 148h-65v39h60q-1 11 -1 33q0 18 1 27h-60v38h64q17 97 80 151.5t163 54.5q97 0 156.5 -51.5t74.5 -143.5l-67 -14q-31 148 -165 148q-147 0 -172 -145h158v-38h-163q-1 -9 -1 -27q0 -22 1 -33h163v-39h-157q29 -140 170 -140
q73 0 113.5 38t56.5 114l66 -12q-15 -95 -75 -148t-161 -53z" />
    <glyph glyph-name="percent.sc" horiz-adv-x="679" 
d="M68 0v6l235 225l21 -17l-169 -214h-87zM528 524h88v-5l-236 -226l-20 17zM178 239q-66 0 -106 40t-40 108t40 107.5t106 39.5q67 0 106.5 -39.5t39.5 -107.5t-39.5 -108t-106.5 -40zM177 288q44 0 67.5 26t23.5 73t-23.5 72.5t-66.5 25.5t-66.5 -25.5t-23.5 -72.5t23 -73
t66 -26zM502 -9q-67 0 -107 40t-40 109q0 68 40 106.5t107 38.5t106 -38.5t39 -106.5q0 -69 -39.5 -109t-105.5 -40zM501 40q44 0 67 26.5t23 73.5q0 46 -23 71.5t-66 25.5q-44 0 -67.5 -25.5t-23.5 -71.5q0 -47 23 -73.5t67 -26.5z" />
    <glyph glyph-name="plus.sc" horiz-adv-x="497" 
d="M213 47v187h-181v63h181v184h70v-184h181v-63h-181v-187h-70z" />
    <glyph glyph-name="minus.sc" horiz-adv-x="492" 
d="M459 233h-426v63h426v-63z" />
    <glyph glyph-name="equal.sc" horiz-adv-x="520" 
d="M473 156h-426v59h426v-59zM473 325h-426v59h426v-59z" />
    <glyph glyph-name="multiply.sc" horiz-adv-x="492" 
d="M395 69q-130 138 -150 160q-61 -67 -150 -160l-49 49q135 124 161 147q-4 4 -161 148l49 49q22 -24 70.5 -75t79.5 -84q20 22 72 76t78 83l50 -49q-115 -105 -162 -147q85 -77 162 -148z" />
    <glyph glyph-name="divide.sc" horiz-adv-x="492" 
d="M459 234h-426v63h426v-63zM208 469h80v-80h-80v80zM208 146h80v-80h-80v80z" />
    <glyph glyph-name="caron.alt" horiz-adv-x="120" 
d="M36 647h60l-27 -251h-45z" />
    <glyph glyph-name="acute.case" horiz-adv-x="303" 
d="M28 663l-12 38l253 92l19 -61z" />
    <glyph glyph-name="hungarumlaut.case" horiz-adv-x="368" 
d="M68 644l-34 21l104 155l52 -36zM202 644l-32 24l110 151l51 -38z" />
    <glyph glyph-name="grave.case" horiz-adv-x="305" 
d="M277 663l-261 71l19 57l253 -90z" />
    <glyph glyph-name="circumflex.case" horiz-adv-x="330" 
d="M284 649l-119 88l-120 -88l-24 31l129 114h30l129 -114z" />
    <glyph glyph-name="caron.case" horiz-adv-x="330" 
d="M180 653h-31l-128 114l25 30l119 -87l120 87l24 -30z" />
    <glyph glyph-name="breve.case" horiz-adv-x="326" 
d="M164 707q88 0 95 85h42q0 -69 -36.5 -103t-100.5 -34t-100.5 34t-36.5 103h42q7 -85 95 -85z" />
    <glyph glyph-name="tilde.case" horiz-adv-x="345" 
d="M102 815q27 0 48.5 -16.5t33 -35.5t27 -35.5t31.5 -16.5q41 0 38 100h39q3 -24 3 -45q0 -53 -20.5 -80.5t-56.5 -27.5q-25 0 -46 16t-32.5 35.5t-27.5 35.5t-33 16q-24 0 -33 -21.5t-8 -74.5h-39q-3 24 -3 43q0 53 21 80t58 27z" />
    <glyph glyph-name="macron.case" horiz-adv-x="313" 
d="M20 726h273v-55h-273v55z" />
    <glyph glyph-name="dieresis.case" horiz-adv-x="320" 
d="M27 749h83v-83h-83v83zM208 749h83v-83h-83v83z" />
    <glyph glyph-name="dotaccent.case" horiz-adv-x="160" 
d="M37 769h87v-85h-87v85z" />
    <glyph glyph-name="ring.case" horiz-adv-x="280" 
d="M242 749q0 -45 -27.5 -72.5t-74.5 -27.5t-74.5 27t-27.5 72q0 46 27.5 73t74.5 27t74.5 -27t27.5 -72zM84 748q0 -27 15 -42t41 -15t41 15.5t15 42.5t-15 42t-41 15t-41 -15t-15 -43z" />
    <glyph glyph-name="zero.numr" horiz-adv-x="391" 
d="M196 632q-55 0 -84.5 -36.5t-29.5 -98.5q0 -63 29 -100.5t84 -37.5t84.5 37.5t29.5 100.5q0 62 -29.5 98.5t-83.5 36.5zM196 679q77 0 122.5 -49t45.5 -133q0 -85 -44.5 -135t-123.5 -50q-80 0 -124.5 50t-44.5 135q0 84 45.5 133t123.5 49z" />
    <glyph glyph-name="one.numr" horiz-adv-x="296" 
d="M282 320h-258v49h112v256q-54 -28 -101 -47l-19 45l140 49h34v-303h92v-49z" />
    <glyph glyph-name="two.numr" horiz-adv-x="368" 
d="M194 633q-88 0 -103 -93l-53 10q22 128 156 128q139 0 139 -106q0 -47 -34.5 -73t-110.5 -45q-64 -17 -88 -36.5t-26 -56.5q89 7 134 7h131v-48h-312v28q0 58 31.5 89.5t106.5 51.5q64 17 88.5 35t24.5 48q0 61 -84 61z" />
    <glyph glyph-name="three.numr" horiz-adv-x="361" 
d="M184 312q-141 0 -163 113l53 11q15 -78 112 -78q92 0 92 60q0 30 -20.5 43.5t-71.5 13.5h-58v40h57q81 0 81 57q0 60 -83 60q-82 0 -99 -73l-51 12q25 107 149 107q67 0 102 -25t35 -71q0 -67 -85 -82v-8q53 -4 76 -23t23 -56q0 -101 -149 -101z" />
    <glyph glyph-name="four.numr" horiz-adv-x="366" 
d="M346 405h-58v-85h-54v85h-223v37l206 228h71v-220h58v-45zM185 450h49v176l-3 1l-163 -184l1 -1q78 8 116 8z" />
    <glyph glyph-name="five.numr" horiz-adv-x="367" 
d="M188 357q93 0 93 69q0 63 -91 63q-64 0 -96 -20l-46 16v185h265v-50q-98 0 -215 7v-123q43 27 104 27q134 0 134 -105q0 -57 -39.5 -85.5t-109.5 -28.5q-130 0 -168 92l50 17q31 -64 119 -64z" />
    <glyph glyph-name="six.numr" horiz-adv-x="371" 
d="M198 494q-55 0 -84.5 -19t-29.5 -47q0 -31 28 -50.5t79 -19.5q98 0 98 71q0 65 -91 65zM76 483v-26l7 -1q23 75 130 75q58 0 94 -25.5t36 -77.5q0 -54 -39.5 -85t-115.5 -31q-164 0 -164 178q0 87 40.5 137.5t127.5 50.5q63 0 96 -24t50 -75l-50 -15q-25 68 -96 68
q-61 0 -88.5 -36t-27.5 -113z" />
    <glyph glyph-name="seven.numr" horiz-adv-x="337" 
d="M12 622v48h313v-49q-131 -126 -145 -301h-60q16 176 160 309q-74 -7 -142 -7h-126z" />
    <glyph glyph-name="eight.numr" horiz-adv-x="376" 
d="M188 312q-160 0 -160 100q0 69 107 79v8q-93 14 -93 83q0 44 37 70t109 26t109 -26t37 -70q0 -68 -88 -82v-9q102 -12 102 -79q0 -100 -160 -100zM188 475q-106 0 -106 -59t106 -59q105 0 105 59t-105 59zM188 632q-93 0 -93 -60q0 -59 93 -59t93 59q0 60 -93 60z" />
    <glyph glyph-name="nine.numr" horiz-adv-x="365" 
d="M170 492q55 0 84.5 20.5t29.5 49.5q0 31 -28 50.5t-79 19.5q-98 0 -98 -73q0 -67 91 -67zM177 312q-122 0 -156 94l49 18q26 -66 107 -66q60 0 87.5 36t27.5 112v26h-7q-23 -77 -130 -77q-58 0 -94 25.5t-36 79.5q0 55 39 86.5t114 31.5q165 0 165 -178q0 -86 -40 -137
t-126 -51z" />
    <glyph glyph-name="zero.dnom" horiz-adv-x="391" 
d="M196 242q-55 0 -84.5 -36.5t-29.5 -98.5q0 -63 29 -100.5t84 -37.5t84.5 37.5t29.5 100.5q0 62 -29.5 98.5t-83.5 36.5zM196 289q77 0 122.5 -49t45.5 -133q0 -85 -44.5 -135t-123.5 -50q-80 0 -124.5 50t-44.5 135q0 84 45.5 133t123.5 49z" />
    <glyph glyph-name="one.dnom" horiz-adv-x="296" 
d="M282 -70h-258v49h112v256q-54 -28 -101 -47l-19 45l140 49h34v-303h92v-49z" />
    <glyph glyph-name="two.dnom" horiz-adv-x="368" 
d="M194 243q-88 0 -103 -93l-53 10q22 128 156 128q139 0 139 -106q0 -47 -34.5 -73t-110.5 -45q-64 -17 -88 -36.5t-26 -56.5q89 7 134 7h131v-48h-312v28q0 58 31.5 89.5t106.5 51.5q64 17 88.5 35t24.5 48q0 61 -84 61z" />
    <glyph glyph-name="three.dnom" horiz-adv-x="365" 
d="M184 -78q-141 0 -163 113l53 11q15 -78 112 -78q92 0 92 60q0 30 -20.5 43.5t-71.5 13.5h-58v40h57q81 0 81 57q0 60 -83 60q-82 0 -99 -73l-51 12q25 107 149 107q67 0 102 -25t35 -71q0 -67 -85 -82v-8q53 -4 76 -23t23 -56q0 -101 -149 -101z" />
    <glyph glyph-name="four.dnom" horiz-adv-x="366" 
d="M346 15h-58v-85h-54v85h-223v37l206 228h71v-220h58v-45zM185 60h49v176l-3 1l-163 -184l1 -1q78 8 116 8z" />
    <glyph glyph-name="five.dnom" horiz-adv-x="367" 
d="M188 -33q93 0 93 69q0 63 -91 63q-64 0 -96 -20l-46 16v185h265v-50q-98 0 -215 7v-123q43 27 104 27q134 0 134 -105q0 -57 -39.5 -85.5t-109.5 -28.5q-130 0 -168 92l50 17q31 -64 119 -64z" />
    <glyph glyph-name="six.dnom" horiz-adv-x="369" 
d="M198 104q-55 0 -84.5 -19t-29.5 -47q0 -31 28 -50.5t79 -19.5q98 0 98 71q0 65 -91 65zM76 93v-26l7 -1q23 75 130 75q58 0 94 -25.5t36 -77.5q0 -54 -39.5 -85t-115.5 -31q-164 0 -164 178q0 87 40.5 137.5t127.5 50.5q63 0 96 -24t50 -75l-50 -15q-25 68 -96 68
q-61 0 -88.5 -36t-27.5 -113z" />
    <glyph glyph-name="seven.dnom" horiz-adv-x="337" 
d="M12 232v48h313v-49q-131 -126 -145 -301h-60q16 176 160 309q-74 -7 -142 -7h-126z" />
    <glyph glyph-name="eight.dnom" horiz-adv-x="375" 
d="M188 -78q-160 0 -160 100q0 69 107 79v8q-93 14 -93 83q0 44 37 70t109 26t109 -26t37 -70q0 -68 -88 -82v-9q102 -12 102 -79q0 -100 -160 -100zM188 85q-106 0 -106 -59t106 -59q105 0 105 59t-105 59zM188 242q-93 0 -93 -60q0 -59 93 -59t93 59q0 60 -93 60z" />
    <glyph glyph-name="nine.dnom" horiz-adv-x="365" 
d="M170 102q55 0 84.5 20.5t29.5 49.5q0 31 -28 50.5t-79 19.5q-98 0 -98 -73q0 -67 91 -67zM177 -78q-122 0 -156 94l49 18q26 -66 107 -66q60 0 87.5 36t27.5 112v26h-7q-23 -77 -130 -77q-58 0 -94 25.5t-36 79.5q0 55 39 86.5t114 31.5q165 0 165 -178q0 -86 -40 -137
t-126 -51z" />
    <glyph glyph-name="zero.circle" horiz-adv-x="466" 
d="M233 474q-134 0 -134 -168q0 -171 134 -171t134 171q0 168 -134 168zM233 528q96 0 146 -58t50 -164t-50 -164.5t-146 -58.5t-146 58.5t-50 164.5t50 164t146 58z" />
    <glyph glyph-name="one.circle" horiz-adv-x="394" 
d="M354 89h-305v52h137v325q-36 -17 -126 -51l-20 51l173 53h33v-378h108v-52z" />
    <glyph glyph-name="two.circle" horiz-adv-x="473" 
d="M254 475q-109 0 -135 -117l-59 10q37 159 193 159q164 0 164 -129q0 -57 -44.5 -90t-132.5 -56q-80 -22 -108 -45t-31 -71q98 6 177 6h145v-53h-376v36q0 71 38 108t126 61q83 24 113.5 45.5t30.5 59.5q0 76 -101 76z" />
    <glyph glyph-name="three.circle" horiz-adv-x="464" 
d="M241 82q-166 0 -201 143l61 10q15 -52 47 -78t93 -26q121 0 121 78q0 39 -24 56t-88 17h-79v46h77q94 0 94 73q0 38 -23.5 56.5t-75.5 18.5q-54 0 -82.5 -24.5t-41.5 -74.5l-57 8q30 141 181 141q158 0 158 -114q0 -83 -100 -101v-8q69 -6 95.5 -28.5t26.5 -70.5
q0 -57 -45 -89.5t-137 -32.5z" />
    <glyph glyph-name="four.circle" horiz-adv-x="473" 
d="M445 194h-72v-105h-61v105h-281v44l270 281h72v-275h72v-50zM258 244h54v218l-5 1l-212 -221l4 -6q85 8 159 8z" />
    <glyph glyph-name="five.circle" horiz-adv-x="468" 
d="M242 132q114 0 114 88q0 43 -28 63t-88 20q-74 0 -120 -27l-48 17v226h320v-55q-128 0 -266 7v-159q56 37 132 37q77 0 118 -33t41 -96q0 -138 -178 -138q-76 0 -124 28t-82 87l57 22q49 -87 152 -87z" />
    <glyph glyph-name="six.circle" horiz-adv-x="469" 
d="M247 310q-68 0 -104 -25.5t-36 -62.5q0 -39 34.5 -64.5t96.5 -25.5q119 0 119 95q0 83 -110 83zM419 226q0 -68 -47 -106t-136 -38q-93 0 -144 48.5t-51 160.5q0 108 48.5 172t152.5 64q81 0 118.5 -34t48.5 -100l-58 -8q-11 47 -35.5 69t-74.5 22q-75 0 -109.5 -47.5
t-34.5 -147.5v-13l9 -1q36 84 159 84q69 0 111.5 -30.5t42.5 -94.5z" />
    <glyph glyph-name="seven.circle" horiz-adv-x="408" 
d="M14 465v54h382v-54q-167 -153 -186 -376h-68q9 105 62.5 205t141.5 178q-98 -7 -195 -7h-137z" />
    <glyph glyph-name="eight.circle" horiz-adv-x="459" 
d="M229 82q-189 0 -189 119q0 88 129 101v9q-53 10 -80.5 34.5t-26.5 66.5q2 115 167 115q85 0 127 -30.5t42 -84.5q0 -82 -108 -101v-9q130 -14 130 -101q0 -119 -191 -119zM229 283q-127 0 -127 -77q0 -75 127 -75q129 0 129 75q0 77 -129 77zM229 477q-106 0 -108 -74
q0 -74 108 -77q109 3 109 77t-109 74z" />
    <glyph glyph-name="nine.circle" horiz-adv-x="466" 
d="M217 295q66 0 101 26t35 65q0 38 -33.5 63.5t-94.5 25.5q-60 0 -89 -26.5t-29 -69.5q0 -84 110 -84zM225 82q-161 0 -183 133l59 9q16 -91 124 -91q72 0 105 47t33 146v11l-8 1q-39 -85 -157 -85q-67 0 -109 31.5t-42 96.5q0 66 47 106t132 40q93 0 143 -48.5t50 -160.5
q0 -108 -47 -172t-147 -64z" />
    <glyph glyph-name="thinspace" horiz-adv-x="89" 
 />
    </font>
</defs>
</svg>
