<?xml version="1.0" standalone="no"?>
<!DOCTYPE svg PUBLIC "-//W3C//DTD SVG 1.1//EN" "http://www.w3.org/Graphics/SVG/1.1/DTD/svg11.dtd" >
<svg xmlns="http://www.w3.org/2000/svg" xmlns:xlink="http://www.w3.org/1999/xlink" version="1.1">
<metadata>
Created by FontForge 20170731 at Fri Dec 18 19:36:29 2020
 By Aleksey,,,
(c) Copyright OH no Type Company, LLC. 2020. All rights reserved.
</metadata>
<defs>
<font id="Degular-Bold" horiz-adv-x="900" >
  <font-face 
    font-family="Degular"
    font-weight="700"
    font-stretch="normal"
    units-per-em="1000"
    panose-1="4 4 7 6 6 3 3 4 3 5"
    ascent="670"
    descent="-330"
    x-height="474"
    cap-height="600"
    bbox="-320 -218 1287 949"
    underline-thickness="50"
    underline-position="-380"
    unicode-range="U+0020-FB02"
  />
<missing-glyph horiz-adv-x="855" 
d="M363 62q27 0 45.5 2.5t43.5 9t36 8.5q0 36 10 67t29 55t31 36t32 29l9 -10q-8 -23 -24 -99q90 61 90 197q0 233 -229 233q-80 0 -135 -36.5t-72 -96.5q47 -4 70.5 -36.5t23.5 -75.5q0 -51 -30.5 -80t-72.5 -34q1 -29 4 -140q17 -12 59 -20.5t80 -8.5zM364 -33
q-142 0 -214 63q-5 144 9 210q-60 29 -60 103q0 71 61 102q-8 103 72.5 171t212.5 68q151 0 229 -77t78 -218q0 -112 -46.5 -194t-145.5 -115q-8 -50 -8 -71q-68 -42 -188 -42zM460 460q55 0 84.5 -33t29.5 -79q0 -54 -37 -90.5t-86 -36.5t-81 32.5t-32 87.5q0 48 31.5 83.5
t90.5 35.5z" />
    <glyph glyph-name=".notdef" horiz-adv-x="855" 
d="M363 62q27 0 45.5 2.5t43.5 9t36 8.5q0 36 10 67t29 55t31 36t32 29l9 -10q-8 -23 -24 -99q90 61 90 197q0 233 -229 233q-80 0 -135 -36.5t-72 -96.5q47 -4 70.5 -36.5t23.5 -75.5q0 -51 -30.5 -80t-72.5 -34q1 -29 4 -140q17 -12 59 -20.5t80 -8.5zM364 -33
q-142 0 -214 63q-5 144 9 210q-60 29 -60 103q0 71 61 102q-8 103 72.5 171t212.5 68q151 0 229 -77t78 -218q0 -112 -46.5 -194t-145.5 -115q-8 -50 -8 -71q-68 -42 -188 -42zM460 460q55 0 84.5 -33t29.5 -79q0 -54 -37 -90.5t-86 -36.5t-81 32.5t-32 87.5q0 48 31.5 83.5
t90.5 35.5z" />
    <glyph glyph-name=".null" horiz-adv-x="0" 
 />
    <glyph glyph-name="nonmarkingreturn" horiz-adv-x="333" 
 />
    <glyph glyph-name="space" unicode=" " horiz-adv-x="183" 
 />
    <glyph glyph-name="exclam" unicode="!" horiz-adv-x="249" 
d="M193 222h-137v378h137v-378zM51 143h148v-143h-148v143z" />
    <glyph glyph-name="quotedbl" unicode="&#x22;" horiz-adv-x="374" 
d="M27 600h140l-16 -274h-103zM207 600h140l-16 -274h-103z" />
    <glyph glyph-name="numbersign" unicode="#" horiz-adv-x="681" 
d="M479 0h-108l10 120h-118l-12 -120h-107l11 120h-119v121h130l10 112h-140v121h151l12 126h113l-13 -126h115l11 126h114l-13 -126h120v-121h-132l-11 -112h143v-121h-155zM262 230h142l13 135h-142z" />
    <glyph glyph-name="dollar" unicode="$" horiz-adv-x="565" 
d="M229 708h115l-7 -106q169 -18 193 -164l-143 -28q-10 48 -34 69.5t-76 21.5q-94 0 -94 -60q0 -29 26.5 -47t108.5 -33q130 -23 178 -70t48 -120q0 -159 -208 -175l8 -120h-115l9 122q-195 18 -215 179l137 29q20 -104 139 -104q100 0 100 60q0 32 -29.5 50t-111.5 32
q-119 19 -168 65t-49 124q0 74 49.5 118t146.5 52z" />
    <glyph glyph-name="percent" unicode="%" horiz-adv-x="762" 
d="M200 260q-81 0 -128 47t-47 129q0 81 47 128t128 47q80 0 127 -46.5t47 -128.5t-46.5 -129t-127.5 -47zM199 349q33 0 51.5 22.5t18.5 64.5t-18.5 64t-50.5 22t-50.5 -22t-18.5 -64t18 -64.5t50 -22.5zM564 -10q-80 0 -127 47.5t-47 129.5q0 81 46.5 127.5t127.5 46.5
t128 -46.5t47 -127.5q0 -82 -47 -129.5t-128 -47.5zM564 79q33 0 51 22.5t18 65.5q0 42 -18.5 63.5t-50.5 21.5t-50.5 -21.5t-18.5 -63.5q0 -43 18 -65.5t51 -22.5zM531 600h193v-6l-303 -265l-21 16zM237 0h-193v6l303 265l21 -15z" />
    <glyph glyph-name="ampersand" unicode="&#x26;" horiz-adv-x="695" 
d="M254 444q0 -36 19 -80q109 33 109 100q0 53 -59 53q-34 0 -51.5 -19.5t-17.5 -53.5zM671 129l5 -130q-29 -6 -71 -6q-101 0 -207 63q-60 -66 -189 -66q-87 0 -140.5 42t-53.5 121q0 65 37 105.5t105 67.5q-30 68 -30 117q0 85 56 127.5t137 42.5q91 0 136 -36.5t45 -98.5
q0 -39 -17.5 -68.5t-49.5 -48t-63 -28.5t-71 -18q56 -85 143 -137q73 94 96 209l121 -17q-26 -136 -143 -226q49 -17 98 -17q16 0 56 2zM251 91q45 0 78 15q-92 76 -151 179q-41 -35 -41 -98q0 -43 28 -69.5t86 -26.5z" />
    <glyph glyph-name="quotesingle" unicode="'" horiz-adv-x="194" 
d="M27 600h140l-16 -274h-103z" />
    <glyph glyph-name="parenleft" unicode="(" horiz-adv-x="348" 
d="M183 254q0 -120 31 -217t110 -193l-90 -62q-191 182 -191 472t191 472l90 -62q-80 -92 -110.5 -190.5t-30.5 -219.5z" />
    <glyph glyph-name="parenright" unicode=")" horiz-adv-x="348" 
d="M165 254q0 120 -31 217t-110 193l89 62q192 -183 192 -472t-192 -472l-90 62q80 93 111 191t31 219z" />
    <glyph glyph-name="asterisk" unicode="*" horiz-adv-x="524" 
d="M189 670h145l-46 -182h-52zM17 438l45 138l159 -100l-16 -50zM184 203l-117 85l144 121l42 -31zM459 289l-117 -85l-69 174l41 31zM463 577l44 -138l-187 -13l-16 51z" />
    <glyph glyph-name="plus" unicode="+" horiz-adv-x="503" 
d="M183 75v167h-159v123h159v166h137v-166h159v-123h-159v-167h-137z" />
    <glyph glyph-name="comma" unicode="," horiz-adv-x="197" 
d="M41 151h137l-105 -286h-100v6z" />
    <glyph glyph-name="hyphen" unicode="-" horiz-adv-x="350" 
d="M18 307h314v-125h-314v125z" />
    <glyph glyph-name="period" unicode="." horiz-adv-x="196" 
d="M24 143h148v-143h-148v143z" />
    <glyph glyph-name="slash" unicode="/" horiz-adv-x="327" 
d="M148 -151h-143l183 793h139z" />
    <glyph glyph-name="zero" unicode="0" horiz-adv-x="589" 
d="M294 489q-126 0 -126 -187q0 -92 31.5 -142.5t93.5 -50.5q127 0 127 193q0 187 -126 187zM294 614q126 0 198 -80.5t72 -231.5q0 -152 -71 -234t-199 -82t-198.5 81.5t-70.5 234.5q0 150 72.5 231t196.5 81z" />
    <glyph glyph-name="one" unicode="1" horiz-adv-x="460" 
d="M433 0h-395v121h146v348q-53 -29 -123 -54l-45 114l224 71h80v-479h113v-121z" />
    <glyph glyph-name="two" unicode="2" horiz-adv-x="578" 
d="M303 495q-108 0 -122 -131l-135 16q25 233 258 233q237 0 237 -199q0 -156 -243 -204q-82 -19 -113 -39t-35 -60q101 11 173 11h220v-122h-514q-2 24 -2 73q0 100 46.5 150.5t154.5 78.5q106 27 139 51t33 66q0 76 -97 76z" />
    <glyph glyph-name="three" unicode="3" horiz-adv-x="568" 
d="M292 -10q-123 0 -188.5 46.5t-76.5 147.5l139 16q8 -50 35.5 -74t91.5 -24q105 0 105 76q0 39 -21.5 56t-77.5 17h-101v98h101q84 0 84 71q0 40 -22.5 58.5t-70.5 18.5q-55 0 -79 -23t-31 -72l-133 12q26 196 242 196q118 0 172.5 -40t54.5 -121q0 -113 -138 -141v-12
q91 -9 126.5 -40t35.5 -95q0 -80 -60 -125.5t-188 -45.5z" />
    <glyph glyph-name="four" unicode="4" horiz-adv-x="582" 
d="M563 134h-75v-134h-137v134h-332v98l293 368h176v-355h75v-111zM329 245h22v245l-9 3l-196 -252l5 -7q88 11 178 11z" />
    <glyph glyph-name="five" unicode="5" horiz-adv-x="572" 
d="M292 101q59 0 84 21.5t25 64.5q0 84 -108 84q-69 0 -121 -35l-111 43v321h447v-130q-177 0 -322 13v-151q62 36 153 36q100 0 151 -49t51 -133q0 -196 -250 -196q-112 0 -176.5 39.5t-86.5 122.5l134 35q32 -86 130 -86z" />
    <glyph glyph-name="six" unicode="6" horiz-adv-x="579" 
d="M301 278q-63 0 -92.5 -24t-29.5 -62q0 -39 29.5 -63.5t88.5 -24.5q111 0 111 92q0 82 -107 82zM547 193q0 -98 -64 -151.5t-189 -53.5q-127 0 -196 71.5t-69 237.5q0 140 66.5 227.5t202.5 87.5q120 0 171.5 -46.5t64.5 -146.5l-137 -15q-9 47 -30.5 69t-69.5 22
q-72 0 -102 -54.5t-30 -178.5v-13l12 -2q37 115 180 115q86 0 138 -41t52 -128z" />
    <glyph glyph-name="seven" unicode="7" horiz-adv-x="522" 
d="M13 472v128h497v-128q-182 -189 -196 -472h-160q15 288 242 483q-101 -11 -182 -11h-201z" />
    <glyph glyph-name="eight" unicode="8" horiz-adv-x="574" 
d="M287 -12q-258 0 -258 171q0 114 157 138v12q-133 29 -133 140q2 163 234 163q234 0 234 -163q0 -58 -33 -91t-99 -49v-12q156 -24 156 -138q0 -171 -258 -171zM287 253q-116 0 -116 -76q0 -75 116 -75t116 75q0 36 -25.5 56t-90.5 20zM287 496q-99 0 -99 -74
q0 -76 99 -76t99 76q0 74 -99 74z" />
    <glyph glyph-name="nine" unicode="9" horiz-adv-x="575" 
d="M279 312q59 0 89 26t30 66q0 41 -29.5 66.5t-86.5 25.5q-111 0 -111 -96q0 -41 27.5 -64.5t80.5 -23.5zM279 -12q-118 0 -176 44t-73 130l135 25q19 -82 117 -82q72 0 101.5 53.5t29.5 175.5v8l-12 2q-41 -116 -175 -116q-89 0 -142 42.5t-53 132.5q0 99 63.5 154
t185.5 55q129 0 198.5 -71t69.5 -238q0 -140 -66.5 -227.5t-202.5 -87.5z" />
    <glyph glyph-name="colon" unicode=":" horiz-adv-x="217" 
d="M34 476h148v-143h-148v143zM34 143h148v-143h-148v143z" />
    <glyph glyph-name="semicolon" unicode=";" horiz-adv-x="229" 
d="M58 151h137l-105 -286h-100v6zM41 476h148v-143h-148v143z" />
    <glyph glyph-name="less" unicode="&#x3c;" horiz-adv-x="512" 
d="M468 8l-440 177v142l440 179v-151l-217 -53q-30 -8 -141 -34v-24q65 -13 141 -33l217 -52v-151z" />
    <glyph glyph-name="equal" unicode="=" horiz-adv-x="526" 
d="M476 153h-426v109h426v-109zM476 343h-426v108h426v-108z" />
    <glyph glyph-name="greater" unicode="&#x3e;" horiz-adv-x="512" 
d="M33 9v151l217 53q30 8 141 34v24q-65 13 -141 33l-217 52v151l441 -177v-142z" />
    <glyph glyph-name="question" unicode="?" horiz-adv-x="494" 
d="M351 275q-43 -18 -43 -58v-12h-131v21q0 45 19 71t68 50q42 20 58 37t16 46q0 65 -80 65q-53 0 -78.5 -30.5t-33.5 -90.5l-133 19q28 219 246 219q108 0 164.5 -43t56.5 -127q0 -70 -33 -106.5t-96 -60.5zM168 143h148v-143h-148v143z" />
    <glyph glyph-name="at" unicode="@" horiz-adv-x="843" 
d="M404 -112q-379 0 -379 334q0 90 28.5 169.5t82 141.5t139 98.5t192.5 36.5q92 0 161.5 -25t111 -69t62 -99.5t20.5 -121.5q0 -146 -58 -218t-147 -72q-132 0 -132 114q0 15 1 23h-10q-51 -137 -140 -137q-51 0 -81 35t-30 105q0 113 46 192.5t126 79.5q87 0 100 -115h6
l14 104h111l-33 -247q-7 -59 38 -59q35 0 58 45.5t23 139.5q0 221 -263 221q-147 0 -228 -98.5t-81 -242.5q0 -125 67.5 -181t196.5 -56q51 0 109 11t94 28h7v-92q-95 -45 -212 -45zM493 294q7 40 -10 63t-51 23q-44 0 -67 -44.5t-23 -112.5q0 -65 46 -65q38 0 66.5 36
t35.5 82z" />
    <glyph glyph-name="A" unicode="A" horiz-adv-x="599" 
d="M454 0l-41 133h-232l-41 -133h-149l210 600h198l209 -600h-154zM237 312l-23 -74h166l-23 74q-25 81 -47 164h-24q-20 -71 -49 -164z" />
    <glyph glyph-name="B" unicode="B" horiz-adv-x="580" 
d="M330 247h-134v-141h138q83 0 83 71q0 36 -19.5 53t-67.5 17zM315 490h-119v-145h115q87 0 87 75q0 37 -19.5 53.5t-63.5 16.5zM52 0v600h262q115 0 168 -37t53 -116q0 -113 -126 -141v-9q82 -8 116.5 -38.5t34.5 -94.5q0 -164 -221 -164h-287z" />
    <glyph glyph-name="C" unicode="C" horiz-adv-x="623" 
d="M319 -14q-139 0 -216 83.5t-77 232.5q0 147 79.5 229.5t217.5 82.5q118 0 187.5 -60.5t83.5 -172.5l-137 -27q-12 68 -44.5 101t-93.5 33q-76 0 -113 -51t-37 -135q0 -192 149 -192q64 0 96 33t46 103l136 -23q-14 -113 -85.5 -175t-191.5 -62z" />
    <glyph glyph-name="D" unicode="D" horiz-adv-x="636" 
d="M290 481h-94v-363h99q92 0 132.5 46t40.5 143q0 95 -41 134.5t-137 39.5zM52 0v600h256q304 0 304 -293q0 -143 -81 -225t-225 -82h-254z" />
    <glyph glyph-name="E" unicode="E" horiz-adv-x="546" 
d="M51 0v600h454v-125h-309v-116h284v-112h-284v-122h308v-125h-453z" />
    <glyph glyph-name="F" unicode="F" horiz-adv-x="512" 
d="M460 192h-264v-192h-144v600h434v-132h-290v-151h264v-125z" />
    <glyph glyph-name="G" unicode="G" horiz-adv-x="641" 
d="M263 -10q-107 0 -173 78t-66 224q0 153 75 237t220 84q121 0 185.5 -51t82.5 -154l-135 -29q-14 56 -44.5 82.5t-89.5 26.5q-79 0 -114 -49.5t-35 -146.5q0 -185 153 -185q140 0 140 112h-144v107h279v-326h-132v131h-12q-46 -141 -190 -141z" />
    <glyph glyph-name="H" unicode="H" horiz-adv-x="640" 
d="M589 0h-144v234h-249v-234h-144v600h144v-237h249v237h144v-600z" />
    <glyph glyph-name="I" unicode="I" horiz-adv-x="247" 
d="M196 0h-144v600h144v-600z" />
    <glyph glyph-name="J" unicode="J" horiz-adv-x="316" 
d="M121 181v419h144v-418q0 -190 -175 -190q-39 0 -81 7l7 123q30 -5 49 -5q56 0 56 64z" />
    <glyph glyph-name="K" unicode="K" horiz-adv-x="580" 
d="M417 0l-179 225h-42v-225h-144v600h144v-259h40l179 259h164v-11l-238 -295l244 -283v-11h-168z" />
    <glyph glyph-name="L" unicode="L" horiz-adv-x="473" 
d="M196 600v-471h257v-129h-401v600h144z" />
    <glyph glyph-name="M" unicode="M" horiz-adv-x="820" 
d="M184 251v-251h-133v600h234l75 -232q24 -75 50 -185h17q28 123 50 190l75 227h216v-600h-144v251q0 16 6 232h-15q-38 -148 -75 -258l-70 -193h-133l-67 197q-39 123 -72 254h-15q1 -73 1 -232z" />
    <glyph glyph-name="N" unicode="N" horiz-adv-x="650" 
d="M408 0l-122 237q-47 97 -97 235l-16 -2q12 -178 12 -289v-181h-134v600h204l105 -201q54 -105 102 -249l16 2q-12 149 -12 263v185h133v-600h-191z" />
    <glyph glyph-name="O" unicode="O" horiz-adv-x="657" 
d="M328 -14q-144 0 -223.5 84.5t-79.5 231.5q0 145 81.5 228.5t221.5 83.5q142 0 222.5 -83.5t80.5 -228.5q0 -147 -79 -231.5t-224 -84.5zM328 110q160 0 160 192q0 88 -39 137t-121 49q-81 0 -120 -49t-39 -137q0 -192 159 -192z" />
    <glyph glyph-name="P" unicode="P" horiz-adv-x="550" 
d="M289 478h-93v-185h95q55 0 79.5 22.5t24.5 70.5t-24.5 70t-81.5 22zM307 176h-111v-176h-144v600h250q235 0 235 -214q0 -91 -61 -150.5t-169 -59.5z" />
    <glyph glyph-name="Q" unicode="Q" horiz-adv-x="658" 
d="M328 110q160 0 160 192q0 88 -39 137t-121 49q-81 0 -120 -49t-39 -137q0 -192 159 -192zM328 -14q-144 0 -223.5 84.5t-79.5 231.5q0 145 81.5 228.5t221.5 83.5q142 0 222.5 -83.5t80.5 -228.5q0 -172 -106 -256l87 -128v-11h-152l-51 87q-40 -8 -81 -8z" />
    <glyph glyph-name="R" unicode="R" horiz-adv-x="595" 
d="M304 479h-108v-160h108q52 0 76 19.5t24 61.5t-23 60.5t-77 18.5zM414 0l-127 207h-91v-207h-145v600h263q233 0 233 -195q0 -136 -119 -180l154 -214v-11h-168z" />
    <glyph glyph-name="S" unicode="S" horiz-adv-x="572" 
d="M293 -14q-246 1 -270 191l137 29q20 -105 139 -105q100 0 100 60q0 33 -29 51t-112 32q-119 19 -168 65.5t-49 124.5q0 86 61 133t182 47q217 0 246 -176l-143 -28q-11 49 -34.5 70.5t-75.5 21.5q-94 0 -94 -60q0 -30 26.5 -48t108.5 -33q130 -23 178 -70t48 -120
q0 -185 -251 -185z" />
    <glyph glyph-name="T" unicode="T" horiz-adv-x="516" 
d="M13 468v132h490v-132h-173v-468h-144v468h-173z" />
    <glyph glyph-name="U" unicode="U" horiz-adv-x="632" 
d="M318 114q66 0 92.5 32.5t26.5 96.5v357h145v-368q0 -119 -68 -182t-196 -63t-197 63.5t-69 181.5v368h144v-355q0 -65 27 -98t95 -33z" />
    <glyph glyph-name="V" unicode="V" horiz-adv-x="595" 
d="M395 0h-194l-210 600h154l96 -312q25 -81 47 -164h23q27 98 48 164l97 312h148z" />
    <glyph glyph-name="W" unicode="W" horiz-adv-x="856" 
d="M379 253l-41 -253h-200l-146 600h155l51 -257q27 -148 37 -220h22q16 119 35 220l52 257h182l52 -257q15 -83 33 -220h22q5 36 36 220l47 257h148l-143 -600h-210l-43 253q-24 151 -34 229h-18q-14 -97 -37 -229z" />
    <glyph glyph-name="X" unicode="X" horiz-adv-x="566" 
d="M404 0l-118 235h-16l-116 -235h-151v11l179 298l-176 280v11h159l119 -228h16l109 228h151v-11l-176 -297l180 -281v-11h-160z" />
    <glyph glyph-name="Y" unicode="Y" horiz-adv-x="549" 
d="M347 0h-144v190l-217 399v11h159l121 -287h17l125 287h155v-11l-216 -398v-191z" />
    <glyph glyph-name="Z" unicode="Z" horiz-adv-x="581" 
d="M543 132v-132h-510v129l325 339l-7 14q-118 -14 -175 -14h-133v132h496v-128l-328 -343l6 -11q105 14 171 14h155z" />
    <glyph glyph-name="bracketleft" unicode="[" horiz-adv-x="316" 
d="M50 -189v882h248v-112h-111v-650h111v-120h-248z" />
    <glyph glyph-name="backslash" unicode="\" horiz-adv-x="327" 
d="M187 -151l-178 793h139l182 -793h-143z" />
    <glyph glyph-name="bracketright" unicode="]" horiz-adv-x="316" 
d="M17 -189v112h112v650h-112v120h249v-882h-249z" />
    <glyph glyph-name="asciicircum" unicode="^" horiz-adv-x="490" 
d="M405 245l-160 159l-160 -159l-63 58l191 237h64l191 -237z" />
    <glyph glyph-name="underscore" unicode="_" horiz-adv-x="460" 
d="M0 0h460v-111h-460v111z" />
    <glyph glyph-name="grave" unicode="`" horiz-adv-x="326" 
d="M272 513l-252 108l50 94l235 -136z" />
    <glyph glyph-name="a" unicode="a" horiz-adv-x="503" 
d="M220 94q46 0 73.5 24.5t27.5 63.5v19h-98q-33 0 -52.5 -14t-19.5 -39q0 -54 69 -54zM328 0v113h-12q-39 -123 -155 -123q-63 0 -101 33.5t-38 100.5t42.5 105.5t132.5 38.5h124v33q0 77 -73 77q-67 0 -80 -68l-128 29q13 68 66 107.5t147 39.5q106 0 154.5 -46.5
t48.5 -138.5v-301h-128z" />
    <glyph glyph-name="b" unicode="b" horiz-adv-x="534" 
d="M280 106q95 0 95 130q0 66 -22.5 97t-71.5 31q-45 0 -71 -30t-26 -81v-37q0 -50 26.5 -80t69.5 -30zM184 642v-288h9q40 133 153 133q78 0 120.5 -64.5t42.5 -186.5q0 -121 -43 -185.5t-120 -64.5q-114 0 -154 138h-8v-124h-136v642h136z" />
    <glyph glyph-name="c" unicode="c" horiz-adv-x="515" 
d="M360 281q-10 42 -31 64.5t-63 22.5q-102 0 -102 -130q0 -133 104 -133q76 0 94 90l125 -30q-26 -179 -218 -179q-115 0 -179.5 63t-64.5 182q0 120 64.5 188t178.5 68q102 0 153.5 -46t64.5 -136z" />
    <glyph glyph-name="d" unicode="d" horiz-adv-x="534" 
d="M254 106q43 0 69.5 29.5t26.5 78.5v37q0 52 -26 82.5t-71 30.5q-95 0 -95 -131q0 -127 96 -127zM350 0v124h-8q-19 -64 -58 -101t-97 -37q-77 0 -119.5 64t-42.5 183q0 123 43 188.5t121 65.5q112 0 152 -133h9v288h136v-642h-136z" />
    <glyph glyph-name="e" unicode="e" horiz-adv-x="510" 
d="M264 385q-47 0 -73 -26.5t-31 -83.5h198q-3 110 -94 110zM266 -13q-111 0 -176 61.5t-65 178.5q0 123 64 191.5t179 68.5q107 0 161 -58t54 -159q0 -26 -3 -64h-321q6 -57 32.5 -83.5t75.5 -26.5q44 0 64.5 17t31.5 49l114 -31q-37 -144 -211 -144z" />
    <glyph glyph-name="f" unicode="f" horiz-adv-x="342" 
d="M220 492v-18h112v-108h-112v-366h-136v366h-69v108h69v22q0 75 42.5 119t127.5 44q46 0 82 -9l-5 -94q-28 5 -50 5q-61 0 -61 -69z" />
    <glyph glyph-name="g" unicode="g" horiz-adv-x="504" 
d="M242 371q-91 0 -91 -67t91 -67q93 0 93 67q0 31 -23 49t-70 18zM248 -81q83 0 113 12t30 38q0 39 -54 39h-161q-30 0 -48.5 -12.5t-18.5 -30.5q0 -25 28.5 -35.5t110.5 -10.5zM496 -27q0 -77 -58.5 -113t-198.5 -36q-129 0 -180.5 24t-51.5 72q0 31 30.5 53t80.5 32v6
q-73 10 -73 65q0 42 60 68l35 18q-110 36 -110 147q0 79 56.5 122t158.5 43h240v-102h-52q-43 0 -91 5l-1 -11q109 -20 109 -88q0 -60 -54.5 -95t-153.5 -35q-42 0 -79 8l-8 -13q-9 -16 -9 -26q0 -24 42 -24q26 0 78.5 1.5t76.5 1.5q153 0 153 -123z" />
    <glyph glyph-name="h" unicode="h" horiz-adv-x="531" 
d="M184 264v-264h-136v642h136v-295h8q43 140 160 140q66 0 100.5 -43.5t34.5 -122.5v-321h-136v283q0 37 -18 59t-54 22q-43 0 -69 -27.5t-26 -72.5z" />
    <glyph glyph-name="i" unicode="i" horiz-adv-x="240" 
d="M191 541h-142v98h142v-98zM188 0h-136v474h136v-474z" />
    <glyph glyph-name="j" unicode="j" horiz-adv-x="249" 
d="M197 27q0 -188 -171 -188q-16 0 -44 4l6 117q17 -3 32 -3q41 0 41 52v464h136v-446zM200 541h-142v98h142v-98z" />
    <glyph glyph-name="k" unicode="k" horiz-adv-x="503" 
d="M186 642v-353h37l121 185h155v-11l-169 -220l179 -232v-11h-155l-133 190h-35v-190h-136v642h136z" />
    <glyph glyph-name="l" unicode="l" horiz-adv-x="236" 
d="M186 642v-642h-136v642h136z" />
    <glyph glyph-name="m" unicode="m" horiz-adv-x="835" 
d="M184 264v-264h-136v474h133v-127h10q20 68 61 104t98 36q121 0 131 -142h11q40 142 158 142q69 0 104.5 -43.5t35.5 -122.5v-321h-137v283q0 81 -72 81q-43 0 -68.5 -27.5t-25.5 -72.5v-264h-136v283q0 37 -18 59t-54 22q-43 0 -69 -27.5t-26 -72.5z" />
    <glyph glyph-name="n" unicode="n" horiz-adv-x="531" 
d="M184 264v-264h-136v474h133v-127h9q21 68 62.5 104t97.5 36q67 0 102 -43.5t35 -122.5v-321h-136v283q0 81 -72 81q-43 0 -69 -27.5t-26 -72.5z" />
    <glyph glyph-name="o" unicode="o" horiz-adv-x="538" 
d="M270 -14q-115 0 -180 67t-65 184q0 118 65.5 184t179.5 66q112 0 177.5 -66.5t65.5 -183.5t-65 -184t-178 -67zM269 373q-108 0 -108 -135q0 -136 108 -136t108 136q0 135 -108 135z" />
    <glyph glyph-name="p" unicode="p" horiz-adv-x="534" 
d="M280 106q95 0 95 130q0 66 -22.5 97t-71.5 31q-45 0 -71 -30t-26 -81v-37q0 -50 26.5 -80t69.5 -30zM509 236q0 -121 -43 -185.5t-120 -64.5q-114 0 -154 138h-8v-276h-136v626h136v-120h9q40 133 153 133q78 0 120.5 -64.5t42.5 -186.5z" />
    <glyph glyph-name="q" unicode="q" horiz-adv-x="534" 
d="M254 106q43 0 69.5 29.5t26.5 78.5v37q0 52 -26 82.5t-71 30.5q-95 0 -95 -130q0 -128 96 -128zM25 233q0 123 42.5 188.5t121.5 65.5q115 0 154 -139l7 3v123h136v-630h-136v280h-8q-19 -64 -58.5 -101t-97.5 -37q-76 0 -118.5 64t-42.5 183z" />
    <glyph glyph-name="r" unicode="r" horiz-adv-x="351" 
d="M184 0h-136v474h129v-154h11q21 94 51.5 126.5t80.5 32.5h14v-156h-28q-71 0 -96.5 -24t-25.5 -88v-211z" />
    <glyph glyph-name="s" unicode="s" horiz-adv-x="469" 
d="M242 -14q-112 0 -161.5 39t-60.5 111l122 25q18 -79 103 -79q69 0 70 46q0 23 -21.5 36.5t-84.5 25.5q-96 21 -135 55.5t-39 96.5q0 70 50 107.5t149 37.5q97 0 141.5 -34.5t58.5 -102.5l-121 -25q-8 37 -26.5 52.5t-55.5 15.5q-67 0 -67 -43q0 -22 19.5 -36t78.5 -26
q105 -22 144.5 -58.5t39.5 -95.5q0 -148 -204 -148z" />
    <glyph glyph-name="t" unicode="t" horiz-adv-x="361" 
d="M73 149v217h-58v108h58v122h136v-122h125v-108h-125v-195q0 -29 12.5 -43t42.5 -14q26 0 62 12l15 -122q-59 -18 -112 -18q-78 0 -117 45.5t-39 117.5z" />
    <glyph glyph-name="u" unicode="u" horiz-adv-x="533" 
d="M352 0v126h-10q-20 -68 -61.5 -104t-98.5 -36q-66 0 -101 44t-35 123v321h136v-283q0 -82 72 -82q43 0 68.5 28t25.5 73v264h137v-474h-133z" />
    <glyph glyph-name="v" unicode="v" horiz-adv-x="487" 
d="M335 0h-182l-161 474h148l50 -186q7 -27 22.5 -83t22.5 -85h20q11 44 46 168l50 186h144z" />
    <glyph glyph-name="w" unicode="w" horiz-adv-x="748" 
d="M457 474l39 -187q19 -84 34 -183h17q5 27 11 57t13.5 67t12.5 60l36 186h134l-131 -474h-178l-40 204q-16 88 -26 167h-17q-7 -53 -26 -167l-37 -204h-173l-132 474h140l42 -186q28 -120 38 -184h18q15 94 33 183l39 187h153z" />
    <glyph glyph-name="x" unicode="x" horiz-adv-x="502" 
d="M335 0l-84 187h-17l-74 -187h-152v11l136 237l-134 215v11h156l82 -183h18l75 183h144v-11l-129 -235l135 -217v-11h-156z" />
    <glyph glyph-name="y" unicode="y" horiz-adv-x="491" 
d="M84 -168q-34 0 -78 7l20 115q35 -7 61 -7q38 0 58.5 11.5t36.5 47.5l-178 468h149l47 -174q5 -19 21.5 -79t24.5 -93h17q5 20 14.5 55.5t16.5 63t12 50.5l44 177h146l-187 -476q-35 -89 -86 -127.5t-139 -38.5z" />
    <glyph glyph-name="z" unicode="z" horiz-adv-x="500" 
d="M334 115h127v-115h-426v117l270 245l-5 11q-96 -14 -161 -14h-96v115h415v-117l-271 -247l4 -9q100 14 143 14z" />
    <glyph glyph-name="braceleft" unicode="{" horiz-adv-x="374" 
d="M351 -181q-35 -3 -90 -3q-179 0 -179 119q0 30 13.5 59.5t29 49.5t28.5 47t13 52q0 29 -17.5 43t-58.5 14h-71v116h70q85 0 85 64q0 32 -22.5 66.5t-45 71.5t-22.5 75q0 119 178 119q55 0 91 -3l-1 -113q-19 1 -51 1q-69 0 -69 -45q0 -21 31 -76.5t31 -98.5
q0 -95 -137 -111v-13q75 -7 106 -30t31 -70q0 -35 -16 -68.5t-31.5 -60.5t-15.5 -47q0 -46 69 -46q13 0 51 2v-114z" />
    <glyph glyph-name="bar" unicode="|" horiz-adv-x="237" 
d="M186 -176h-136v869h136v-869z" />
    <glyph glyph-name="braceright" unicode="}" horiz-adv-x="374" 
d="M112 -187q-19 0 -91 3l1 114q38 -2 50 -2q70 0 70 46q0 21 -31 76t-31 99q0 93 137 111v12q-75 6 -106 29.5t-31 71.5q0 44 31.5 99.5t31.5 76.5q0 45 -69 45q-32 0 -51 -1v113q35 3 90 3q91 0 135 -30.5t43 -88.5q0 -46 -41.5 -108.5t-41.5 -99.5q0 -29 17.5 -42.5
t58.5 -13.5h71v-116h-70q-85 0 -85 -64q0 -32 22.5 -66.5t45 -72t22.5 -75.5q0 -119 -178 -119z" />
    <glyph glyph-name="asciitilde" unicode="~" horiz-adv-x="503" 
d="M348 261q-33 0 -59 14t-42 33.5t-29.5 39.5t-27.5 34t-29 14q-29 0 -39.5 -30t-7.5 -97h-76q-4 35 -4 70q0 180 116 180q40 0 70.5 -21t45.5 -46.5t33.5 -46.5t37.5 -21q55 0 48 127h75q4 -33 4 -69q0 -181 -116 -181z" />
    <glyph glyph-name="uni00A0" unicode="&#xa0;" horiz-adv-x="170" 
 />
    <glyph glyph-name="exclamdown" unicode="&#xa1;" horiz-adv-x="249" 
d="M56 252h137v-378h-137v378zM198 331h-147v143h147v-143z" />
    <glyph glyph-name="cent" unicode="&#xa2;" horiz-adv-x="514" 
d="M208 599h115l-9 -124q148 -16 172 -170l-126 -24q-10 42 -31 64t-62 22q-103 0 -103 -129q0 -61 26.5 -96.5t77.5 -35.5q75 0 94 89l125 -30q-22 -149 -173 -166l9 -123h-115l9 124q-91 12 -141.5 71t-50.5 160q0 103 50.5 166t141.5 77z" />
    <glyph glyph-name="sterling" unicode="&#xa3;" horiz-adv-x="559" 
d="M525 0h-502v118h93q7 28 7 59q0 22 -4 39h-96v101h69q-20 65 -20 118q0 82 57 128.5t167 46.5q59 0 102 -15t67.5 -42.5t37 -59t18.5 -72.5l-123 -28q-12 53 -34 76t-68 23q-89 0 -89 -83q0 -30 14 -92h230v-101h-218q-2 -58 -37 -98h329v-118z" />
    <glyph glyph-name="yen" unicode="&#xa5;" horiz-adv-x="596" 
d="M559 140h-188v-140h-144v140h-190v87h170l-35 64h-135v92h85l-112 206v11h159l121 -287h17l125 287h155v-11l-112 -206h84v-92h-134l-35 -64h169v-87z" />
    <glyph glyph-name="brokenbar" unicode="&#xa6;" horiz-adv-x="249" 
d="M192 -176h-135v384h135v-384zM192 303h-135v390h135v-390z" />
    <glyph glyph-name="section" unicode="&#xa7;" horiz-adv-x="615" 
d="M312 -178q-134 0 -196 48t-79 137l137 33q13 -54 47.5 -83t102.5 -29q100 0 100 56q0 30 -28.5 46t-117.5 32q-146 27 -203.5 67t-57.5 106q0 74 84 124q-26 33 -26 88q0 80 56.5 123.5t168.5 43.5q126 0 178.5 -44.5t68.5 -140.5l-138 -23q-11 55 -36.5 80t-76.5 25
q-88 0 -88 -60q0 -30 29.5 -49.5t126.5 -35.5q135 -24 183.5 -62.5t48.5 -104.5q0 -75 -65 -120q29 -34 29 -93q0 -164 -248 -164zM329 166q99 -18 154 -49q10 21 10 47q0 43 -39 65t-172 49q-91 18 -139 46q-17 -26 -17 -52q0 -36 39.5 -59t163.5 -47z" />
    <glyph glyph-name="dieresis" unicode="&#xa8;" horiz-adv-x="348" 
d="M28 671h121v-117h-121v117zM199 671h121v-117h-121v117z" />
    <glyph glyph-name="copyright" unicode="&#xa9;" horiz-adv-x="904" 
d="M452 -11q304 0 304 312q0 310 -304 310q-156 0 -230 -81.5t-74 -228.5q0 -312 304 -312zM452 714q206 0 311 -110.5t105 -302.5t-104.5 -303.5t-311.5 -111.5t-311.5 111.5t-104.5 303.5t105 302.5t311 110.5zM532 337q-5 39 -22 59t-55 20q-86 0 -86 -111
q0 -116 86 -116q70 0 77 76l115 -14q-6 -84 -51.5 -125t-140.5 -41q-98 0 -153.5 54.5t-55.5 158.5t55.5 163t154.5 59q94 0 137.5 -43t51.5 -127z" />
    <glyph glyph-name="ordfeminine" unicode="&#xaa;" horiz-adv-x="402" 
d="M181 390q31 0 50 18t19 47v18h-61q-28 0 -44 -11.5t-16 -32.5q0 -39 52 -39zM256 327v78h-8q-32 -87 -117 -87q-109 0 -109 96q0 42 32 69.5t98 27.5h98v30q0 54 -49 54q-45 0 -57 -48l-106 24q11 48 53 77t115 29q160 0 160 -138v-212h-110z" />
    <glyph glyph-name="guillemotleft" unicode="&#xab;" horiz-adv-x="640" 
d="M361 32h-132l-214 219v14l214 219h132v-13l-204 -213l204 -213v-13zM627 32h-132l-214 219v14l214 219h132v-13l-204 -213l204 -213v-13z" />
    <glyph glyph-name="registered" unicode="&#xae;" horiz-adv-x="905" 
d="M461 412h-80v-104h81q65 0 65 52q0 28 -15.5 40t-50.5 12zM532 103l-83 127h-68v-127h-115v399h208q168 0 168 -138q0 -92 -84 -121l101 -130v-10h-127zM452 -11q304 0 304 312q0 310 -304 310q-156 0 -230 -81.5t-74 -228.5q0 -312 304 -312zM452 -114
q-207 0 -311.5 111.5t-104.5 303.5t105 302.5t311 110.5t311 -110.5t105 -302.5t-104.5 -303.5t-311.5 -111.5z" />
    <glyph glyph-name="macron" unicode="&#xaf;" horiz-adv-x="314" 
d="M21 646h271v-92h-271v92z" />
    <glyph glyph-name="degree" unicode="&#xb0;" horiz-adv-x="345" 
d="M323 463q0 -67 -41 -107t-109 -40q-69 0 -109.5 40t-40.5 107t40.5 107t109.5 40q68 0 109 -40t41 -107zM110 463q0 -65 63 -65q30 0 46 17t16 48t-16 48.5t-46 17.5q-31 0 -47 -17.5t-16 -48.5z" />
    <glyph glyph-name="twosuperior" unicode="&#xb2;" horiz-adv-x="370" 
d="M191 603q-59 0 -68 -69l-94 13q16 132 163 132q151 0 151 -115q0 -50 -34.5 -74t-115.5 -39q-48 -10 -66 -22t-21 -33q51 9 103 9h136v-85h-326q0 7 -0.5 21t-0.5 22q0 58 29 90t103 49q57 13 76 26.5t19 34.5q0 40 -54 40z" />
    <glyph glyph-name="threesuperior" unicode="&#xb3;" horiz-adv-x="360" 
d="M178 312q-150 0 -164 113l93 15q8 -52 73 -52q59 0 59 39q0 19 -12.5 28t-44.5 9h-50v62h50q51 0 51 37q0 39 -55 39q-33 0 -47 -12t-20 -38l-90 18q23 108 156 108q150 0 150 -97q0 -65 -87 -79v-11q53 -5 75 -23t22 -55q0 -48 -40 -74.5t-119 -26.5z" />
    <glyph glyph-name="acute" unicode="&#xb4;" horiz-adv-x="326" 
d="M54 513l-34 66l236 136l49 -94z" />
    <glyph glyph-name="paragraph" unicode="&#xb6;" horiz-adv-x="690" 
d="M639 -155h-127v755h127v-755zM457 -155h-127v277h-54q-120 0 -186 60t-66 172q0 246 252 246h181v-755z" />
    <glyph glyph-name="periodcentered" unicode="&#xb7;" horiz-adv-x="217" 
d="M34 315h148v-143h-148v143z" />
    <glyph glyph-name="cedilla" unicode="&#xb8;" horiz-adv-x="227" 
d="M123 -168q-62 0 -102 28l27 42q36 -22 75 -22q35 0 35 25q0 23 -35 23q-17 0 -37 -6l-35 14l32 89l52 -1l-26 -70q17 6 35 6q72 0 72 -60q0 -26 -22 -47t-71 -21z" />
    <glyph glyph-name="onesuperior" unicode="&#xb9;" horiz-adv-x="293" 
d="M283 320h-262v83h92v185q-40 -25 -76 -38l-30 75l134 46h68v-268h74v-83z" />
    <glyph glyph-name="ordmasculine" unicode="&#xba;" horiz-adv-x="393" 
d="M199 321q-82 0 -129 48t-47 131t47.5 130t128.5 47t128 -47t47 -130t-46.5 -131t-128.5 -48zM199 595q-76 0 -76 -94q0 -96 76 -96q75 0 75 96q0 94 -75 94z" />
    <glyph glyph-name="guillemotright" unicode="&#xbb;" horiz-adv-x="641" 
d="M412 30h-131v13l203 211v3l-203 212v13h131l214 -220v-13zM146 30h-132v13l204 212v1l-204 213v13h132l214 -220v-13z" />
    <glyph glyph-name="onequarter" unicode="&#xbc;" horiz-adv-x="735" 
d="M200 0h-193v6l303 265l21 -15zM494 600h193v-6l-303 -265l-21 16zM283 320h-262v83h92v185q-40 -25 -76 -38l-30 75l134 46h68v-268h74v-83zM552 79v137l-4 1l-113 -144l1 -2q66 8 116 8zM690 6h-44v-76h-94v76h-200v62l170 212h124v-201h44v-73z" />
    <glyph glyph-name="onehalf" unicode="&#xbd;" horiz-adv-x="720" 
d="M187 0h-193v6l303 265l21 -15zM481 600h193v-6l-303 -265l-21 16zM283 320h-262v83h92v185q-40 -25 -76 -38l-30 75l134 46h68v-268h74v-83zM525 213q-59 0 -68 -69l-94 13q16 132 163 132q151 0 151 -115q0 -50 -34.5 -74t-115.5 -39q-48 -10 -66 -22t-21 -33
q51 9 103 9h136v-85h-326q0 7 -0.5 21t-0.5 22q0 58 29 90t103 49q57 13 76 26.5t19 34.5q0 40 -54 40z" />
    <glyph glyph-name="threequarters" unicode="&#xbe;" horiz-adv-x="754" 
d="M225 0h-193v6l303 265l21 -15zM519 600h193v-6l-303 -265l-21 16zM710 6h-44v-76h-94v76h-200v62l170 212h124v-201h44v-73zM180 312q-150 0 -164 113l93 15q8 -52 73 -52q59 0 59 39q0 19 -12.5 28t-44.5 9h-50v62h50q51 0 51 37q0 39 -55 39q-33 0 -47 -12t-20 -38
l-90 18q23 108 156 108q150 0 150 -97q0 -65 -87 -79v-11q53 -5 75 -23t22 -55q0 -48 -40 -74.5t-119 -26.5zM572 79v137l-4 1l-113 -144l1 -2q66 8 116 8z" />
    <glyph glyph-name="questiondown" unicode="&#xbf;" horiz-adv-x="494" 
d="M143 199q44 18 44 58v11h130q1 -7 1 -20q0 -45 -19.5 -71t-68.5 -50q-41 -20 -57 -37.5t-16 -46.5q0 -65 80 -65q53 0 78 30.5t33 90.5l133 -19q-26 -218 -246 -218q-221 0 -221 170q0 70 33 106.5t96 60.5zM327 331h-148v143h148v-143z" />
    <glyph glyph-name="Agrave" unicode="&#xc0;" horiz-adv-x="599" 
d="M454 0l-41 133h-232l-41 -133h-149l210 600h198l209 -600h-154zM380 650l-267 65l32 99l257 -95zM237 312l-23 -74h166l-23 74q-25 81 -47 164h-24q-20 -71 -49 -164z" />
    <glyph glyph-name="Aacute" unicode="&#xc1;" horiz-adv-x="599" 
d="M454 0l-41 133h-232l-41 -133h-149l210 600h198l209 -600h-154zM213 650l-22 69l257 96l32 -101zM237 312l-23 -74h166l-23 74q-25 81 -47 164h-24q-20 -71 -49 -164z" />
    <glyph glyph-name="Acircumflex" unicode="&#xc2;" horiz-adv-x="599" 
d="M454 0l-41 133h-232l-41 -133h-149l210 600h198l209 -600h-154zM416 639l-117 76l-117 -76l-41 49l137 126h43l136 -126zM237 312l-23 -74h166l-23 74q-25 81 -47 164h-24q-20 -71 -49 -164z" />
    <glyph glyph-name="Atilde" unicode="&#xc3;" horiz-adv-x="599" 
d="M454 0l-41 133h-232l-41 -133h-149l210 600h198l209 -600h-154zM229 823q26 0 47 -13t32.5 -29t25 -29t26.5 -13q20 0 27.5 18.5t6.5 60.5h59q3 -24 3 -46q0 -61 -23 -93t-63 -32q-23 0 -43 13t-31.5 29t-26.5 29t-30 13q-19 0 -26.5 -17.5t-7.5 -60.5h-58q-3 25 -3 45
q0 62 22.5 93.5t62.5 31.5zM237 312l-23 -74h166l-23 74q-25 81 -47 164h-24q-20 -71 -49 -164z" />
    <glyph glyph-name="Adieresis" unicode="&#xc4;" horiz-adv-x="599" 
d="M454 0l-41 133h-232l-41 -133h-149l210 600h198l209 -600h-154zM151 774h121v-117h-121v117zM322 774h121v-117h-121v117zM237 312l-23 -74h166l-23 74q-25 81 -47 164h-24q-20 -71 -49 -164z" />
    <glyph glyph-name="Aring" unicode="&#xc5;" horiz-adv-x="599" 
d="M454 0l-41 133h-232l-41 -133h-149l210 600h198l209 -600h-154zM252 750q0 -21 13 -33.5t35 -12.5t35 12.5t13 34.5q0 21 -13 33.5t-35 12.5t-35 -12.5t-13 -34.5zM414 751q0 -50 -31 -79.5t-83 -29.5q-53 0 -83.5 29.5t-30.5 78.5q0 50 30.5 79.5t83.5 29.5
q52 0 83 -29.5t31 -78.5zM237 312l-23 -74h166l-23 74q-25 81 -47 164h-24q-20 -71 -49 -164z" />
    <glyph glyph-name="AE" unicode="&#xc6;" horiz-adv-x="871" 
d="M278 312l-34 -80h132v250h-32q-34 -96 -66 -170zM376 0v125h-178l-54 -125h-149v6l277 594h558v-125h-309v-116h284v-112h-284v-122h308v-125h-453z" />
    <glyph glyph-name="Ccedilla" unicode="&#xc7;" horiz-adv-x="623" 
d="M319 -14h-3l-12 -32q17 6 35 6q72 0 72 -60q0 -26 -22 -47t-71 -21q-62 0 -102 28l27 42q36 -22 75 -22q35 0 35 25q0 23 -35 23q-17 0 -37 -6l-35 14l19 54q-114 16 -176.5 97.5t-62.5 214.5q0 147 79.5 229.5t217.5 82.5q118 0 187.5 -60.5t83.5 -172.5l-137 -27
q-12 68 -44.5 101t-93.5 33q-76 0 -113 -51t-37 -135q0 -192 149 -192q64 0 96 33t46 103l136 -23q-14 -113 -85.5 -175t-191.5 -62z" />
    <glyph glyph-name="Egrave" unicode="&#xc8;" horiz-adv-x="546" 
d="M51 0v600h454v-125h-309v-116h284v-112h-284v-122h308v-125h-453zM360 650l-267 65l32 99l257 -95z" />
    <glyph glyph-name="Eacute" unicode="&#xc9;" horiz-adv-x="546" 
d="M51 0v600h454v-125h-309v-116h284v-112h-284v-122h308v-125h-453zM193 650l-22 69l257 96l32 -101z" />
    <glyph glyph-name="Ecircumflex" unicode="&#xca;" horiz-adv-x="546" 
d="M51 0v600h454v-125h-309v-116h284v-112h-284v-122h308v-125h-453zM396 639l-117 76l-117 -76l-41 49l137 126h43l136 -126z" />
    <glyph glyph-name="Edieresis" unicode="&#xcb;" horiz-adv-x="546" 
d="M51 0v600h454v-125h-309v-116h284v-112h-284v-122h308v-125h-453zM131 774h121v-117h-121v117zM302 774h121v-117h-121v117z" />
    <glyph glyph-name="Igrave" unicode="&#xcc;" horiz-adv-x="247" 
d="M196 0h-144v600h144v-600zM204 650l-267 65l32 99l257 -95z" />
    <glyph glyph-name="Iacute" unicode="&#xcd;" horiz-adv-x="247" 
d="M196 0h-144v600h144v-600zM37 650l-22 69l257 96l32 -101z" />
    <glyph glyph-name="Icircumflex" unicode="&#xce;" horiz-adv-x="247" 
d="M196 0h-144v600h144v-600zM240 639l-117 76l-117 -76l-41 49l137 126h43l136 -126z" />
    <glyph glyph-name="Idieresis" unicode="&#xcf;" horiz-adv-x="247" 
d="M196 0h-144v600h144v-600zM-23 774h121v-117h-121v117zM148 774h121v-117h-121v117z" />
    <glyph glyph-name="Eth" unicode="&#xd0;" horiz-adv-x="663" 
d="M355 257h-133v-139h99q92 0 132.5 46t40.5 143q0 95 -41 134.5t-137 39.5h-94v-139h133v-85zM78 0v257h-59v85h59v258h256q304 0 304 -293q0 -143 -81 -225t-225 -82h-254z" />
    <glyph glyph-name="Ntilde" unicode="&#xd1;" horiz-adv-x="650" 
d="M408 0l-122 237q-47 97 -97 235l-16 -2q12 -178 12 -289v-181h-134v600h204l105 -201q54 -105 102 -249l16 2q-12 149 -12 263v185h133v-600h-191zM255 823q26 0 47 -13t32.5 -29t25 -29t26.5 -13q20 0 27.5 18.5t6.5 60.5h59q3 -24 3 -46q0 -61 -23 -93t-63 -32
q-23 0 -43 13t-31.5 29t-26.5 29t-30 13q-19 0 -26.5 -17.5t-7.5 -60.5h-58q-3 25 -3 45q0 62 22.5 93.5t62.5 31.5z" />
    <glyph glyph-name="Ograve" unicode="&#xd2;" horiz-adv-x="657" 
d="M328 -14q-144 0 -223.5 84.5t-79.5 231.5q0 145 81.5 228.5t221.5 83.5q142 0 222.5 -83.5t80.5 -228.5q0 -147 -79 -231.5t-224 -84.5zM328 110q160 0 160 192q0 88 -39 137t-121 49q-81 0 -120 -49t-39 -137q0 -192 159 -192zM409 650l-267 65l32 99l257 -95z" />
    <glyph glyph-name="Oacute" unicode="&#xd3;" horiz-adv-x="657" 
d="M328 -14q-144 0 -223.5 84.5t-79.5 231.5q0 145 81.5 228.5t221.5 83.5q142 0 222.5 -83.5t80.5 -228.5q0 -147 -79 -231.5t-224 -84.5zM328 110q160 0 160 192q0 88 -39 137t-121 49q-81 0 -120 -49t-39 -137q0 -192 159 -192zM242 650l-22 69l257 96l32 -101z" />
    <glyph glyph-name="Ocircumflex" unicode="&#xd4;" horiz-adv-x="657" 
d="M328 110q160 0 160 192q0 88 -39 137t-121 49q-81 0 -120 -49t-39 -137q0 -192 159 -192zM328 -14q-144 0 -223.5 84.5t-79.5 231.5q0 145 81.5 228.5t221.5 83.5q142 0 222.5 -83.5t80.5 -228.5q0 -147 -79 -231.5t-224 -84.5zM445 639l-117 76l-117 -76l-41 49l137 126
h43l136 -126z" />
    <glyph glyph-name="Otilde" unicode="&#xd5;" horiz-adv-x="657" 
d="M328 -14q-144 0 -223.5 84.5t-79.5 231.5q0 145 81.5 228.5t221.5 83.5q142 0 222.5 -83.5t80.5 -228.5q0 -147 -79 -231.5t-224 -84.5zM328 110q160 0 160 192q0 88 -39 137t-121 49q-81 0 -120 -49t-39 -137q0 -192 159 -192zM258 823q26 0 47 -13t32.5 -29t25 -29
t26.5 -13q20 0 27.5 18.5t6.5 60.5h59q3 -24 3 -46q0 -61 -23 -93t-63 -32q-23 0 -43 13t-31.5 29t-26.5 29t-30 13q-19 0 -26.5 -17.5t-7.5 -60.5h-58q-3 25 -3 45q0 62 22.5 93.5t62.5 31.5z" />
    <glyph glyph-name="Odieresis" unicode="&#xd6;" horiz-adv-x="657" 
d="M328 -14q-144 0 -223.5 84.5t-79.5 231.5q0 145 81.5 228.5t221.5 83.5q142 0 222.5 -83.5t80.5 -228.5q0 -147 -79 -231.5t-224 -84.5zM328 110q160 0 160 192q0 88 -39 137t-121 49q-81 0 -120 -49t-39 -137q0 -192 159 -192zM180 774h121v-117h-121v117zM351 774h121
v-117h-121v117z" />
    <glyph glyph-name="multiply" unicode="&#xd7;" horiz-adv-x="509" 
d="M380 88q-21 23 -61.5 68t-64.5 71q-73 -81 -125 -139l-96 95q32 29 142 122q-124 107 -142 123l96 95q21 -23 61 -68t65 -73q16 18 58.5 66.5t66.5 74.5l96 -95q-18 -16 -142 -123q20 -17 49.5 -42t51 -43.5t41.5 -36.5z" />
    <glyph glyph-name="Oslash" unicode="&#xd8;" horiz-adv-x="656" 
d="M328 -14q-110 0 -184 51l-32 -37h-107v6l82 85q-62 82 -62 211q0 145 81.5 228.5t221.5 83.5q112 0 188 -54l34 40h104v-6l-83 -88q60 -80 60 -204q0 -147 -79 -231.5t-224 -84.5zM162 302q0 -65 19 -109l248 269q-41 30 -101 30q-84 0 -125 -52.5t-41 -137.5zM328 106
q166 0 166 196q0 58 -19 100l-246 -269q37 -27 99 -27z" />
    <glyph glyph-name="Ugrave" unicode="&#xd9;" horiz-adv-x="632" 
d="M318 114q66 0 92.5 32.5t26.5 96.5v357h145v-368q0 -119 -68 -182t-196 -63t-197 63.5t-69 181.5v368h144v-355q0 -65 27 -98t95 -33zM397 650l-267 65l32 99l257 -95z" />
    <glyph glyph-name="Uacute" unicode="&#xda;" horiz-adv-x="632" 
d="M318 114q66 0 92.5 32.5t26.5 96.5v357h145v-368q0 -119 -68 -182t-196 -63t-197 63.5t-69 181.5v368h144v-355q0 -65 27 -98t95 -33zM230 650l-22 69l257 96l32 -101z" />
    <glyph glyph-name="Ucircumflex" unicode="&#xdb;" horiz-adv-x="632" 
d="M318 114q66 0 92.5 32.5t26.5 96.5v357h145v-368q0 -119 -68 -182t-196 -63t-197 63.5t-69 181.5v368h144v-355q0 -65 27 -98t95 -33zM433 639l-117 76l-117 -76l-41 49l137 126h43l136 -126z" />
    <glyph glyph-name="Udieresis" unicode="&#xdc;" horiz-adv-x="632" 
d="M318 114q66 0 92.5 32.5t26.5 96.5v357h145v-368q0 -119 -68 -182t-196 -63t-197 63.5t-69 181.5v368h144v-355q0 -65 27 -98t95 -33zM168 774h121v-117h-121v117zM339 774h121v-117h-121v117z" />
    <glyph glyph-name="Yacute" unicode="&#xdd;" horiz-adv-x="549" 
d="M347 0h-144v190l-217 399v11h159l121 -287h17l125 287h155v-11l-216 -398v-191zM188 650l-22 69l257 96l32 -101z" />
    <glyph glyph-name="Thorn" unicode="&#xde;" horiz-adv-x="562" 
d="M52 600h144v-79h118q236 0 236 -214q0 -98 -60.5 -156t-172.5 -58h-121v-93h-144v600zM302 399h-106v-184h107q55 0 79.5 22.5t24.5 69.5q0 48 -24 70t-81 22z" />
    <glyph glyph-name="germandbls" unicode="&#xdf;" horiz-adv-x="572" 
d="M337 -10q-75 0 -124 36l34 119q33 -30 82 -30q82 0 82 79q0 40 -22.5 60.5t-78.5 20.5h-63v112h35q38 0 59.5 21t21.5 59q0 76 -83 76q-94 0 -94 -107v-436h-136v441q0 104 60 157.5t172 53.5q105 0 159.5 -44.5t54.5 -114.5q0 -122 -132 -145v-16q100 -9 140 -46.5
t40 -113.5q0 -83 -51 -132.5t-156 -49.5z" />
    <glyph glyph-name="agrave" unicode="&#xe0;" horiz-adv-x="503" 
d="M220 94q46 0 73.5 24.5t27.5 63.5v19h-98q-33 0 -52.5 -14t-19.5 -39q0 -54 69 -54zM328 0v113h-12q-39 -123 -155 -123q-63 0 -101 33.5t-38 100.5t42.5 105.5t132.5 38.5h124v33q0 77 -73 77q-67 0 -80 -68l-128 29q13 68 66 107.5t147 39.5q106 0 154.5 -46.5
t48.5 -138.5v-301h-128zM332 513l-252 108l50 94l235 -136z" />
    <glyph glyph-name="aacute" unicode="&#xe1;" horiz-adv-x="503" 
d="M220 94q46 0 73.5 24.5t27.5 63.5v19h-98q-33 0 -52.5 -14t-19.5 -39q0 -54 69 -54zM328 0v113h-12q-39 -123 -155 -123q-63 0 -101 33.5t-38 100.5t42.5 105.5t132.5 38.5h124v33q0 77 -73 77q-67 0 -80 -68l-128 29q13 68 66 107.5t147 39.5q106 0 154.5 -46.5
t48.5 -138.5v-301h-128zM184 513l-34 66l236 136l49 -94z" />
    <glyph glyph-name="acircumflex" unicode="&#xe2;" horiz-adv-x="503" 
d="M220 94q46 0 73.5 24.5t27.5 63.5v19h-98q-33 0 -52.5 -14t-19.5 -39q0 -54 69 -54zM328 0v113h-12q-39 -123 -155 -123q-63 0 -101 33.5t-38 100.5t42.5 105.5t132.5 38.5h124v33q0 77 -73 77q-67 0 -80 -68l-128 29q13 68 66 107.5t147 39.5q106 0 154.5 -46.5
t48.5 -138.5v-301h-128zM362 514l-113 92l-113 -92l-45 48l137 146h43l136 -146z" />
    <glyph glyph-name="atilde" unicode="&#xe3;" horiz-adv-x="503" 
d="M220 94q46 0 73.5 24.5t27.5 63.5v19h-98q-33 0 -52.5 -14t-19.5 -39q0 -54 69 -54zM328 0v113h-12q-39 -123 -155 -123q-63 0 -101 33.5t-38 100.5t42.5 105.5t132.5 38.5h124v33q0 77 -73 77q-67 0 -80 -68l-128 29q13 68 66 107.5t147 39.5q106 0 154.5 -46.5
t48.5 -138.5v-301h-128zM179 705q26 0 47 -13t32.5 -29t25 -29t26.5 -13q20 0 27.5 18.5t6.5 60.5h59q3 -24 3 -46q0 -61 -23 -93t-63 -32q-23 0 -43 13t-31.5 29t-26.5 29t-30 13q-19 0 -26.5 -17.5t-7.5 -60.5h-58q-3 25 -3 45q0 62 22.5 93.5t62.5 31.5z" />
    <glyph glyph-name="adieresis" unicode="&#xe4;" horiz-adv-x="503" 
d="M220 94q46 0 73.5 24.5t27.5 63.5v19h-98q-33 0 -52.5 -14t-19.5 -39q0 -54 69 -54zM328 0v113h-12q-39 -123 -155 -123q-63 0 -101 33.5t-38 100.5t42.5 105.5t132.5 38.5h124v33q0 77 -73 77q-67 0 -80 -68l-128 29q13 68 66 107.5t147 39.5q106 0 154.5 -46.5
t48.5 -138.5v-301h-128zM104 671h121v-117h-121v117zM275 671h121v-117h-121v117z" />
    <glyph glyph-name="aring" unicode="&#xe5;" horiz-adv-x="503" 
d="M220 94q46 0 73.5 24.5t27.5 63.5v19h-98q-33 0 -52.5 -14t-19.5 -39q0 -54 69 -54zM328 0v113h-12q-39 -123 -155 -123q-63 0 -101 33.5t-38 100.5t42.5 105.5t132.5 38.5h124v33q0 77 -73 77q-67 0 -80 -68l-128 29q13 68 66 107.5t147 39.5q106 0 154.5 -46.5
t48.5 -138.5v-301h-128zM199 639q0 -25 13.5 -39t36.5 -14t37 14t14 39t-14 38.5t-37 13.5t-36.5 -13.5t-13.5 -38.5zM366 639q0 -52 -31.5 -83t-85.5 -31t-85 31t-31 83t31 83t85 31t85.5 -31t31.5 -83z" />
    <glyph glyph-name="ae" unicode="&#xe6;" horiz-adv-x="806" 
d="M220 94q46 0 73.5 24.5t27.5 63.5v25h-97q-34 0 -53.5 -15.5t-19.5 -42.5q0 -55 69 -55zM560 385q-49 0 -74.5 -28t-29.5 -89h199q1 117 -95 117zM774 134q-18 -71 -65.5 -109.5t-144.5 -38.5q-77 0 -133.5 31.5t-79.5 96.5q-45 -126 -184 -126q-64 0 -105 34.5
t-41 102.5q0 64 43 101t133 37h124v38q0 77 -74 77q-66 0 -79 -68l-128 29q13 67 63 107t133 40q122 0 162 -82q54 83 166 83q106 0 160.5 -58t54.5 -159q0 -37 -3 -59h-320q4 -60 30 -87.5t77 -27.5q44 0 65 18t31 51z" />
    <glyph glyph-name="ccedilla" unicode="&#xe7;" horiz-adv-x="518" 
d="M360 281q-10 42 -31 64.5t-63 22.5q-102 0 -102 -130q0 -133 104 -133q76 0 94 90l125 -30q-26 -179 -218 -179h-10l-12 -32q17 6 35 6q72 0 72 -60q0 -26 -22 -47t-71 -21q-62 0 -102 28l27 42q36 -22 75 -22q35 0 35 25q0 23 -35 23q-17 0 -37 -6l-35 14l20 55
q-88 15 -136 76t-48 164q0 120 64.5 188t178.5 68q102 0 153.5 -46t64.5 -136z" />
    <glyph glyph-name="egrave" unicode="&#xe8;" horiz-adv-x="510" 
d="M264 385q-47 0 -73 -26.5t-31 -83.5h198q-3 110 -94 110zM266 -13q-111 0 -176 61.5t-65 178.5q0 123 64 191.5t179 68.5q107 0 161 -58t54 -159q0 -26 -3 -64h-321q6 -57 32.5 -83.5t75.5 -26.5q44 0 64.5 17t31.5 49l114 -31q-37 -144 -211 -144zM341 513l-252 108
l50 94l235 -136z" />
    <glyph glyph-name="eacute" unicode="&#xe9;" horiz-adv-x="510" 
d="M264 385q-47 0 -73 -26.5t-31 -83.5h198q-3 110 -94 110zM266 -13q-111 0 -176 61.5t-65 178.5q0 123 64 191.5t179 68.5q107 0 161 -58t54 -159q0 -26 -3 -64h-321q6 -57 32.5 -83.5t75.5 -26.5q44 0 64.5 17t31.5 49l114 -31q-37 -144 -211 -144zM194 513l-34 66
l236 136l49 -94z" />
    <glyph glyph-name="ecircumflex" unicode="&#xea;" horiz-adv-x="510" 
d="M264 385q-47 0 -73 -26.5t-31 -83.5h198q-3 110 -94 110zM266 -13q-111 0 -176 61.5t-65 178.5q0 123 64 191.5t179 68.5q107 0 161 -58t54 -159q0 -26 -3 -64h-321q6 -57 32.5 -83.5t75.5 -26.5q44 0 64.5 17t31.5 49l114 -31q-37 -144 -211 -144zM372 514l-113 92
l-113 -92l-45 48l137 146h43l136 -146z" />
    <glyph glyph-name="edieresis" unicode="&#xeb;" horiz-adv-x="510" 
d="M264 385q-47 0 -73 -26.5t-31 -83.5h198q-3 110 -94 110zM266 -13q-111 0 -176 61.5t-65 178.5q0 123 64 191.5t179 68.5q107 0 161 -58t54 -159q0 -26 -3 -64h-321q6 -57 32.5 -83.5t75.5 -26.5q44 0 64.5 17t31.5 49l114 -31q-37 -144 -211 -144zM114 671h121v-117
h-121v117zM285 671h121v-117h-121v117z" />
    <glyph glyph-name="igrave" unicode="&#xec;" horiz-adv-x="250" 
d="M193 0h-136v474h136v-474zM207 513l-252 108l50 94l235 -136z" />
    <glyph glyph-name="iacute" unicode="&#xed;" horiz-adv-x="250" 
d="M193 0h-136v474h136v-474zM55 513l-34 66l236 136l49 -94z" />
    <glyph glyph-name="icircumflex" unicode="&#xee;" horiz-adv-x="250" 
d="M193 0h-136v474h136v-474zM238 514l-113 92l-113 -92l-45 48l137 146h43l136 -146z" />
    <glyph glyph-name="idieresis" unicode="&#xef;" horiz-adv-x="250" 
d="M193 0h-136v474h136v-474zM-21 671h121v-117h-121v117zM150 671h121v-117h-121v117z" />
    <glyph glyph-name="eth" unicode="&#xf0;" horiz-adv-x="534" 
d="M266 -14q-114 0 -177.5 62.5t-63.5 180.5q0 109 53.5 166.5t137.5 58.5q101 -1 150 -120l11 4q-27 103 -115 189l-122 -47l-26 66l86 33q-29 21 -65 42l40 65q73 -27 130 -65l113 44l26 -68l-72 -28q137 -126 137 -314q0 -130 -63.5 -199.5t-179.5 -69.5zM374 232
q0 128 -110 128q-50 0 -77 -34.5t-27 -91.5q0 -131 108 -131q51 0 78.5 34.5t27.5 94.5z" />
    <glyph glyph-name="ntilde" unicode="&#xf1;" horiz-adv-x="531" 
d="M184 264v-264h-136v474h133v-127h9q21 68 62.5 104t97.5 36q67 0 102 -43.5t35 -122.5v-321h-136v283q0 81 -72 81q-43 0 -69 -27.5t-26 -72.5zM197 705q26 0 47 -13t32.5 -29t25 -29t26.5 -13q20 0 27.5 18.5t6.5 60.5h59q3 -24 3 -46q0 -61 -23 -93t-63 -32
q-23 0 -43 13t-31.5 29t-26.5 29t-30 13q-19 0 -26.5 -17.5t-7.5 -60.5h-58q-3 25 -3 45q0 62 22.5 93.5t62.5 31.5z" />
    <glyph glyph-name="ograve" unicode="&#xf2;" horiz-adv-x="538" 
d="M270 -14q-115 0 -180 67t-65 184q0 118 65.5 184t179.5 66q112 0 177.5 -66.5t65.5 -183.5t-65 -184t-178 -67zM269 373q-108 0 -108 -135q0 -136 108 -136t108 136q0 135 -108 135zM349 513l-252 108l50 94l235 -136z" />
    <glyph glyph-name="oacute" unicode="&#xf3;" horiz-adv-x="538" 
d="M270 -14q-115 0 -180 67t-65 184q0 118 65.5 184t179.5 66q112 0 177.5 -66.5t65.5 -183.5t-65 -184t-178 -67zM269 373q-108 0 -108 -135q0 -136 108 -136t108 136q0 135 -108 135zM202 513l-34 66l236 136l49 -94z" />
    <glyph glyph-name="ocircumflex" unicode="&#xf4;" horiz-adv-x="538" 
d="M269 373q-108 0 -108 -135q0 -136 108 -136t108 136q0 135 -108 135zM270 -14q-115 0 -180 67t-65 184q0 118 65.5 184t179.5 66q112 0 177.5 -66.5t65.5 -183.5t-65 -184t-178 -67zM381 514l-113 92l-113 -92l-45 48l137 146h43l136 -146z" />
    <glyph glyph-name="otilde" unicode="&#xf5;" horiz-adv-x="538" 
d="M270 -14q-115 0 -180 67t-65 184q0 118 65.5 184t179.5 66q112 0 177.5 -66.5t65.5 -183.5t-65 -184t-178 -67zM269 373q-108 0 -108 -135q0 -136 108 -136t108 136q0 135 -108 135zM197 705q26 0 47 -13t32.5 -29t25 -29t26.5 -13q20 0 27.5 18.5t6.5 60.5h59
q3 -24 3 -46q0 -61 -23 -93t-63 -32q-23 0 -43 13t-31.5 29t-26.5 29t-30 13q-19 0 -26.5 -17.5t-7.5 -60.5h-58q-3 25 -3 45q0 62 22.5 93.5t62.5 31.5z" />
    <glyph glyph-name="odieresis" unicode="&#xf6;" horiz-adv-x="538" 
d="M270 -14q-115 0 -180 67t-65 184q0 118 65.5 184t179.5 66q112 0 177.5 -66.5t65.5 -183.5t-65 -184t-178 -67zM269 373q-108 0 -108 -135q0 -136 108 -136t108 136q0 135 -108 135zM122 671h121v-117h-121v117zM293 671h121v-117h-121v117z" />
    <glyph glyph-name="divide" unicode="&#xf7;" horiz-adv-x="489" 
d="M457 248h-426v121h426v-121zM194 535h110v-107h-110v107zM194 194h110v-107h-110v107z" />
    <glyph glyph-name="oslash" unicode="&#xf8;" horiz-adv-x="538" 
d="M270 -14q-91 0 -152 43l-22 -29h-97v6l70 72q-44 62 -44 159q0 118 65.5 184t179.5 66q89 0 150 -43l24 30h94v-6l-69 -73q44 -63 44 -158q0 -117 -65 -184t-178 -67zM269 382q-122 0 -122 -144q0 -40 9 -70l187 194q-29 20 -74 20zM269 92q121 0 121 146q0 38 -9 67
l-185 -194q28 -19 73 -19z" />
    <glyph glyph-name="ugrave" unicode="&#xf9;" horiz-adv-x="533" 
d="M352 0v126h-10q-20 -68 -61.5 -104t-98.5 -36q-66 0 -101 44t-35 123v321h136v-283q0 -82 72 -82q43 0 68.5 28t25.5 73v264h137v-474h-133zM347 513l-252 108l50 94l235 -136z" />
    <glyph glyph-name="uacute" unicode="&#xfa;" horiz-adv-x="533" 
d="M352 0v126h-10q-20 -68 -61.5 -104t-98.5 -36q-66 0 -101 44t-35 123v321h136v-283q0 -82 72 -82q43 0 68.5 28t25.5 73v264h137v-474h-133zM200 513l-34 66l236 136l49 -94z" />
    <glyph glyph-name="ucircumflex" unicode="&#xfb;" horiz-adv-x="533" 
d="M352 0v126h-10q-20 -68 -61.5 -104t-98.5 -36q-66 0 -101 44t-35 123v321h136v-283q0 -82 72 -82q43 0 68.5 28t25.5 73v264h137v-474h-133zM378 514l-113 92l-113 -92l-45 48l137 146h43l136 -146z" />
    <glyph glyph-name="udieresis" unicode="&#xfc;" horiz-adv-x="533" 
d="M352 0v126h-10q-20 -68 -61.5 -104t-98.5 -36q-66 0 -101 44t-35 123v321h136v-283q0 -82 72 -82q43 0 68.5 28t25.5 73v264h137v-474h-133zM120 671h121v-117h-121v117zM291 671h121v-117h-121v117z" />
    <glyph glyph-name="yacute" unicode="&#xfd;" horiz-adv-x="485" 
d="M84 -168q-34 0 -78 7l20 115q35 -7 61 -7q38 0 58.5 11.5t36.5 47.5l-178 468h149l47 -174q5 -19 21.5 -79t24.5 -93h17q5 20 14.5 55.5t16.5 63t12 50.5l44 177h146l-187 -476q-35 -89 -86 -127.5t-139 -38.5zM180 513l-34 66l236 136l49 -94z" />
    <glyph glyph-name="thorn" unicode="&#xfe;" horiz-adv-x="534" 
d="M280 106q95 0 95 130q0 66 -22.5 97t-71.5 31q-45 0 -71 -30t-26 -81v-37q0 -50 26.5 -80t69.5 -30zM184 642v-288h9q40 133 153 133q78 0 120.5 -64.5t42.5 -186.5q0 -121 -43 -185.5t-120 -64.5q-114 0 -154 138h-8v-276h-136v794h136z" />
    <glyph glyph-name="ydieresis" unicode="&#xff;" horiz-adv-x="485" 
d="M84 -168q-34 0 -78 7l20 115q35 -7 61 -7q38 0 58.5 11.5t36.5 47.5l-178 468h149l47 -174q5 -19 21.5 -79t24.5 -93h17q5 20 14.5 55.5t16.5 63t12 50.5l44 177h146l-187 -476q-35 -89 -86 -127.5t-139 -38.5zM100 671h121v-117h-121v117zM271 671h121v-117h-121v117z
" />
    <glyph glyph-name="Amacron" unicode="&#x100;" horiz-adv-x="599" 
d="M454 0l-41 133h-232l-41 -133h-149l210 600h198l209 -600h-154zM162 757h275v-92h-275v92zM237 312l-23 -74h166l-23 74q-25 81 -47 164h-24q-20 -71 -49 -164z" />
    <glyph glyph-name="amacron" unicode="&#x101;" horiz-adv-x="503" 
d="M220 94q46 0 73.5 24.5t27.5 63.5v19h-98q-33 0 -52.5 -14t-19.5 -39q0 -54 69 -54zM328 0v113h-12q-39 -123 -155 -123q-63 0 -101 33.5t-38 100.5t42.5 105.5t132.5 38.5h124v33q0 77 -73 77q-67 0 -80 -68l-128 29q13 68 66 107.5t147 39.5q106 0 154.5 -46.5
t48.5 -138.5v-301h-128zM114 646h271v-92h-271v92z" />
    <glyph glyph-name="Abreve" unicode="&#x102;" horiz-adv-x="599" 
d="M454 0l-41 133h-232l-41 -133h-149l210 600h198l209 -600h-154zM299 737q74 0 83 71h62q0 -82 -36.5 -119t-108.5 -37t-108.5 37t-36.5 119h62q9 -71 83 -71zM237 312l-23 -74h166l-23 74q-25 81 -47 164h-24q-20 -71 -49 -164z" />
    <glyph glyph-name="abreve" unicode="&#x103;" horiz-adv-x="503" 
d="M220 94q46 0 73.5 24.5t27.5 63.5v19h-98q-33 0 -52.5 -14t-19.5 -39q0 -54 69 -54zM328 0v113h-12q-39 -123 -155 -123q-63 0 -101 33.5t-38 100.5t42.5 105.5t132.5 38.5h124v33q0 77 -73 77q-67 0 -80 -68l-128 29q13 68 66 107.5t147 39.5q106 0 154.5 -46.5
t48.5 -138.5v-301h-128zM249 616q74 0 83 82h62q0 -87 -36 -127t-109 -40q-72 0 -108.5 40t-36.5 127h62q10 -82 83 -82z" />
    <glyph glyph-name="Aogonek" unicode="&#x104;" horiz-adv-x="598" 
d="M609 -162q-37 -5 -62 -5q-117 0 -117 76q0 65 99 91h-75l-41 133h-232l-41 -133h-149l210 600h198l209 -600q-55 -10 -78.5 -22t-23.5 -32q0 -28 50 -28q24 0 52 7zM237 312l-23 -74h166l-23 74q-25 81 -47 164h-24q-20 -71 -49 -164z" />
    <glyph glyph-name="aogonek" unicode="&#x105;" horiz-adv-x="524" 
d="M220 94q46 0 73.5 24.5t27.5 63.5v19h-98q-33 0 -52.5 -14t-19.5 -39q0 -54 69 -54zM448 -162q-37 -5 -62 -5q-117 0 -117 76q0 65 99 91h-40v113h-12q-39 -123 -155 -123q-63 0 -101 33.5t-38 100.5t42.5 105.5t132.5 38.5h124v33q0 77 -73 77q-67 0 -80 -68l-128 29
q13 68 66 107.5t147 39.5q106 0 154.5 -46.5t48.5 -138.5v-301h-9q-55 -10 -78.5 -22t-23.5 -32q0 -28 50 -28q24 0 52 7z" />
    <glyph glyph-name="Cacute" unicode="&#x106;" horiz-adv-x="623" 
d="M319 -14q-139 0 -216 83.5t-77 232.5q0 147 79.5 229.5t217.5 82.5q118 0 187.5 -60.5t83.5 -172.5l-137 -27q-12 68 -44.5 101t-93.5 33q-76 0 -113 -51t-37 -135q0 -192 149 -192q64 0 96 33t46 103l136 -23q-14 -113 -85.5 -175t-191.5 -62zM231 650l-22 69l257 96
l32 -101z" />
    <glyph glyph-name="cacute" unicode="&#x107;" horiz-adv-x="515" 
d="M360 281q-10 42 -31 64.5t-63 22.5q-102 0 -102 -130q0 -133 104 -133q76 0 94 90l125 -30q-26 -179 -218 -179q-115 0 -179.5 63t-64.5 182q0 120 64.5 188t178.5 68q102 0 153.5 -46t64.5 -136zM208 513l-34 66l236 136l49 -94z" />
    <glyph glyph-name="Ccircumflex" unicode="&#x108;" horiz-adv-x="623" 
d="M319 -14q-139 0 -216 83.5t-77 232.5q0 147 79.5 229.5t217.5 82.5q118 0 187.5 -60.5t83.5 -172.5l-137 -27q-12 68 -44.5 101t-93.5 33q-76 0 -113 -51t-37 -135q0 -192 149 -192q64 0 96 33t46 103l136 -23q-14 -113 -85.5 -175t-191.5 -62zM434 639l-117 76l-117 -76
l-41 49l137 126h43l136 -126z" />
    <glyph glyph-name="ccircumflex" unicode="&#x109;" horiz-adv-x="515" 
d="M360 281q-10 42 -31 64.5t-63 22.5q-102 0 -102 -130q0 -133 104 -133q76 0 94 90l125 -30q-26 -179 -218 -179q-115 0 -179.5 63t-64.5 182q0 120 64.5 188t178.5 68q102 0 153.5 -46t64.5 -136zM378 514l-113 92l-113 -92l-45 48l137 146h43l136 -146z" />
    <glyph glyph-name="Cdotaccent" unicode="&#x10a;" horiz-adv-x="623" 
d="M319 -14q-139 0 -216 83.5t-77 232.5q0 147 79.5 229.5t217.5 82.5q118 0 187.5 -60.5t83.5 -172.5l-137 -27q-12 68 -44.5 101t-93.5 33q-76 0 -113 -51t-37 -135q0 -192 149 -192q64 0 96 33t46 103l136 -23q-14 -113 -85.5 -175t-191.5 -62zM252 786h131v-125h-131
v125z" />
    <glyph glyph-name="cdotaccent" unicode="&#x10b;" horiz-adv-x="515" 
d="M360 281q-10 42 -31 64.5t-63 22.5q-102 0 -102 -130q0 -133 104 -133q76 0 94 90l125 -30q-26 -179 -218 -179q-115 0 -179.5 63t-64.5 182q0 120 64.5 188t178.5 68q102 0 153.5 -46t64.5 -136zM200 679h131v-125h-131v125z" />
    <glyph glyph-name="Ccaron" unicode="&#x10c;" horiz-adv-x="623" 
d="M319 -14q-139 0 -216 83.5t-77 232.5q0 147 79.5 229.5t217.5 82.5q118 0 187.5 -60.5t83.5 -172.5l-137 -27q-12 68 -44.5 101t-93.5 33q-76 0 -113 -51t-37 -135q0 -192 149 -192q64 0 96 33t46 103l136 -23q-14 -113 -85.5 -175t-191.5 -62zM338 644h-43l-136 126
l41 48l117 -76l117 76l41 -48z" />
    <glyph glyph-name="ccaron" unicode="&#x10d;" horiz-adv-x="515" 
d="M360 281q-10 42 -31 64.5t-63 22.5q-102 0 -102 -130q0 -133 104 -133q76 0 94 90l125 -30q-26 -179 -218 -179q-115 0 -179.5 63t-64.5 182q0 120 64.5 188t178.5 68q102 0 153.5 -46t64.5 -136zM284 525h-43l-136 145l45 48l113 -92l113 92l45 -48z" />
    <glyph glyph-name="Dcaron" unicode="&#x10e;" horiz-adv-x="636" 
d="M290 481h-94v-363h99q92 0 132.5 46t40.5 143q0 95 -41 134.5t-137 39.5zM52 0v600h256q304 0 304 -293q0 -143 -81 -225t-225 -82h-254zM336 644h-43l-136 126l41 48l117 -76l117 76l41 -48z" />
    <glyph glyph-name="dcaron" unicode="&#x10f;" horiz-adv-x="631" 
d="M254 106q43 0 69.5 29.5t26.5 78.5v37q0 52 -26 82.5t-71 30.5q-95 0 -95 -131q0 -127 96 -127zM350 0v124h-8q-19 -64 -58 -101t-97 -37q-77 0 -119.5 64t-42.5 183q0 123 43 188.5t121 65.5q112 0 152 -133h9v288h136v-642h-136zM535 641h102l-31 -252h-84z" />
    <glyph glyph-name="Dcroat" unicode="&#x110;" horiz-adv-x="663" 
d="M355 257h-133v-139h99q92 0 132.5 46t40.5 143q0 95 -41 134.5t-137 39.5h-94v-139h133v-85zM78 0v257h-59v85h59v258h256q304 0 304 -293q0 -143 -81 -225t-225 -82h-254z" />
    <glyph glyph-name="dcroat" unicode="&#x111;" horiz-adv-x="547" 
d="M254 106q43 0 69.5 29.5t26.5 78.5v37q0 52 -26 82.5t-71 30.5q-95 0 -95 -131q0 -127 96 -127zM350 0v124h-8q-19 -64 -58 -101t-97 -37q-77 0 -119.5 64t-42.5 183q0 123 43 188.5t121 65.5q112 0 152 -133h9v166h-120v71h120v51h136v-51h53v-71h-53v-520h-136z" />
    <glyph glyph-name="Emacron" unicode="&#x112;" horiz-adv-x="546" 
d="M51 0v600h454v-125h-309v-116h284v-112h-284v-122h308v-125h-453zM142 757h275v-92h-275v92z" />
    <glyph glyph-name="emacron" unicode="&#x113;" horiz-adv-x="510" 
d="M264 385q-47 0 -73 -26.5t-31 -83.5h198q-3 110 -94 110zM266 -13q-111 0 -176 61.5t-65 178.5q0 123 64 191.5t179 68.5q107 0 161 -58t54 -159q0 -26 -3 -64h-321q6 -57 32.5 -83.5t75.5 -26.5q44 0 64.5 17t31.5 49l114 -31q-37 -144 -211 -144zM123 646h271v-92h-271
v92z" />
    <glyph glyph-name="Ebreve" unicode="&#x114;" horiz-adv-x="546" 
d="M51 0v600h454v-125h-309v-116h284v-112h-284v-122h308v-125h-453zM279 737q74 0 83 71h62q0 -82 -36.5 -119t-108.5 -37t-108.5 37t-36.5 119h62q9 -71 83 -71z" />
    <glyph glyph-name="ebreve" unicode="&#x115;" horiz-adv-x="510" 
d="M264 385q-47 0 -73 -26.5t-31 -83.5h198q-3 110 -94 110zM266 -13q-111 0 -176 61.5t-65 178.5q0 123 64 191.5t179 68.5q107 0 161 -58t54 -159q0 -26 -3 -64h-321q6 -57 32.5 -83.5t75.5 -26.5q44 0 64.5 17t31.5 49l114 -31q-37 -144 -211 -144zM259 616q74 0 83 82
h62q0 -87 -36 -127t-109 -40q-72 0 -108.5 40t-36.5 127h62q10 -82 83 -82z" />
    <glyph glyph-name="Edotaccent" unicode="&#x116;" horiz-adv-x="546" 
d="M51 0v600h454v-125h-309v-116h284v-112h-284v-122h308v-125h-453zM215 786h131v-125h-131v125z" />
    <glyph glyph-name="edotaccent" unicode="&#x117;" horiz-adv-x="510" 
d="M264 385q-47 0 -73 -26.5t-31 -83.5h198q-3 110 -94 110zM266 -13q-111 0 -176 61.5t-65 178.5q0 123 64 191.5t179 68.5q107 0 161 -58t54 -159q0 -26 -3 -64h-321q6 -57 32.5 -83.5t75.5 -26.5q44 0 64.5 17t31.5 49l114 -31q-37 -144 -211 -144zM194 679h131v-125
h-131v125z" />
    <glyph glyph-name="Eogonek" unicode="&#x118;" horiz-adv-x="546" 
d="M505 -162q-37 -5 -62 -5q-117 0 -117 76q0 65 99 91h-374v600h454v-125h-309v-116h284v-112h-284v-122h308v-125q-55 -10 -78.5 -22t-23.5 -32q0 -28 50 -28q24 0 52 7z" />
    <glyph glyph-name="eogonek" unicode="&#x119;" horiz-adv-x="510" 
d="M264 385q-47 0 -73 -26.5t-31 -83.5h198q-3 110 -94 110zM266 -13q-111 0 -176 61.5t-65 178.5q0 123 64 191.5t179 68.5q107 0 161 -58t54 -159q0 -26 -3 -64h-321q6 -57 32.5 -83.5t75.5 -26.5q44 0 64.5 17t31.5 49l113 -31l1 2v-2q-6 -23 -15 -42q-22 -50 -73 -89
q-38 -28 -38 -57q0 -35 55 -35q21 0 56 8l1 -100q-37 -5 -61 -5q-134 0 -134 85q0 25 16.5 46.5t33 32.5t44.5 26q-42 -14 -96 -14z" />
    <glyph glyph-name="Ecaron" unicode="&#x11a;" horiz-adv-x="546" 
d="M51 0v600h454v-125h-309v-116h284v-112h-284v-122h308v-125h-453zM300 644h-43l-136 126l41 48l117 -76l117 76l41 -48z" />
    <glyph glyph-name="ecaron" unicode="&#x11b;" horiz-adv-x="510" 
d="M264 385q-47 0 -73 -26.5t-31 -83.5h198q-3 110 -94 110zM266 -13q-111 0 -176 61.5t-65 178.5q0 123 64 191.5t179 68.5q107 0 161 -58t54 -159q0 -26 -3 -64h-321q6 -57 32.5 -83.5t75.5 -26.5q44 0 64.5 17t31.5 49l114 -31q-37 -144 -211 -144zM280 525h-43l-136 145
l45 48l113 -92l113 92l45 -48z" />
    <glyph glyph-name="Gcircumflex" unicode="&#x11c;" horiz-adv-x="641" 
d="M263 -10q-107 0 -173 78t-66 224q0 153 75 237t220 84q121 0 185.5 -51t82.5 -154l-135 -29q-14 56 -44.5 82.5t-89.5 26.5q-79 0 -114 -49.5t-35 -146.5q0 -185 153 -185q140 0 140 112h-144v107h279v-326h-132v131h-12q-46 -141 -190 -141zM432 639l-117 76l-117 -76
l-41 49l137 126h43l136 -126z" />
    <glyph glyph-name="gcircumflex" unicode="&#x11d;" horiz-adv-x="504" 
d="M242 371q-91 0 -91 -67t91 -67q93 0 93 67q0 31 -23 49t-70 18zM248 -81q83 0 113 12t30 38q0 39 -54 39h-161q-30 0 -48.5 -12.5t-18.5 -30.5q0 -25 28.5 -35.5t110.5 -10.5zM496 -27q0 -77 -58.5 -113t-198.5 -36q-129 0 -180.5 24t-51.5 72q0 31 30.5 53t80.5 32v6
q-73 10 -73 65q0 42 60 68l35 18q-110 36 -110 147q0 79 56.5 122t158.5 43h240v-102h-52q-43 0 -91 5l-1 -11q109 -20 109 -88q0 -60 -54.5 -95t-153.5 -35q-42 0 -79 8l-8 -13q-9 -16 -9 -26q0 -24 42 -24q26 0 78.5 1.5t76.5 1.5q153 0 153 -123zM358 514l-113 92
l-113 -92l-45 48l137 146h43l136 -146z" />
    <glyph glyph-name="Gbreve" unicode="&#x11e;" horiz-adv-x="641" 
d="M263 -10q-107 0 -173 78t-66 224q0 153 75 237t220 84q121 0 185.5 -51t82.5 -154l-135 -29q-14 56 -44.5 82.5t-89.5 26.5q-79 0 -114 -49.5t-35 -146.5q0 -185 153 -185q140 0 140 112h-144v107h279v-326h-132v131h-12q-46 -141 -190 -141zM315 737q74 0 83 71h62
q0 -82 -36.5 -119t-108.5 -37t-108.5 37t-36.5 119h62q9 -71 83 -71z" />
    <glyph glyph-name="gbreve" unicode="&#x11f;" horiz-adv-x="504" 
d="M242 371q-91 0 -91 -67t91 -67q93 0 93 67q0 31 -23 49t-70 18zM248 -81q83 0 113 12t30 38q0 39 -54 39h-161q-30 0 -48.5 -12.5t-18.5 -30.5q0 -25 28.5 -35.5t110.5 -10.5zM496 -27q0 -77 -58.5 -113t-198.5 -36q-129 0 -180.5 24t-51.5 72q0 31 30.5 53t80.5 32v6
q-73 10 -73 65q0 42 60 68l35 18q-110 36 -110 147q0 79 56.5 122t158.5 43h240v-102h-52q-43 0 -91 5l-1 -11q109 -20 109 -88q0 -60 -54.5 -95t-153.5 -35q-42 0 -79 8l-8 -13q-9 -16 -9 -26q0 -24 42 -24q26 0 78.5 1.5t76.5 1.5q153 0 153 -123zM245 616q74 0 83 82h62
q0 -87 -36 -127t-109 -40q-72 0 -108.5 40t-36.5 127h62q10 -82 83 -82z" />
    <glyph glyph-name="Gdotaccent" unicode="&#x120;" horiz-adv-x="641" 
d="M263 -10q-107 0 -173 78t-66 224q0 153 75 237t220 84q121 0 185.5 -51t82.5 -154l-135 -29q-14 56 -44.5 82.5t-89.5 26.5q-79 0 -114 -49.5t-35 -146.5q0 -185 153 -185q140 0 140 112h-144v107h279v-326h-132v131h-12q-46 -141 -190 -141zM250 786h131v-125h-131v125z
" />
    <glyph glyph-name="gdotaccent" unicode="&#x121;" horiz-adv-x="504" 
d="M242 371q-91 0 -91 -67t91 -67q93 0 93 67q0 31 -23 49t-70 18zM248 -81q83 0 113 12t30 38q0 39 -54 39h-161q-30 0 -48.5 -12.5t-18.5 -30.5q0 -25 28.5 -35.5t110.5 -10.5zM496 -27q0 -77 -58.5 -113t-198.5 -36q-129 0 -180.5 24t-51.5 72q0 31 30.5 53t80.5 32v6
q-73 10 -73 65q0 42 60 68l35 18q-110 36 -110 147q0 79 56.5 122t158.5 43h240v-102h-52q-43 0 -91 5l-1 -11q109 -20 109 -88q0 -60 -54.5 -95t-153.5 -35q-42 0 -79 8l-8 -13q-9 -16 -9 -26q0 -24 42 -24q26 0 78.5 1.5t76.5 1.5q153 0 153 -123zM180 679h131v-125h-131
v125z" />
    <glyph glyph-name="uni0122" unicode="&#x122;" horiz-adv-x="641" 
d="M263 -10q-107 0 -173 78t-66 224q0 153 75 237t220 84q121 0 185.5 -51t82.5 -154l-135 -29q-14 56 -44.5 82.5t-89.5 26.5q-79 0 -114 -49.5t-35 -146.5q0 -185 153 -185q140 0 140 112h-144v107h279v-326h-132v131h-12q-46 -141 -190 -141zM279 -51h104l-59 -154h-84v9
z" />
    <glyph glyph-name="uni0123" unicode="&#x123;" horiz-adv-x="504" 
d="M291 533h-104l58 154h85v-9zM242 371q-91 0 -91 -67t91 -67q93 0 93 67q0 31 -23 49t-70 18zM248 -81q83 0 113 12t30 38q0 39 -54 39h-161q-30 0 -48.5 -12.5t-18.5 -30.5q0 -25 28.5 -35.5t110.5 -10.5zM496 -27q0 -77 -58.5 -113t-198.5 -36q-129 0 -180.5 24
t-51.5 72q0 31 30.5 53t80.5 32v6q-73 10 -73 65q0 42 60 68l35 18q-110 36 -110 147q0 79 56.5 122t158.5 43h240v-102h-52q-43 0 -91 5l-1 -11q109 -20 109 -88q0 -60 -54.5 -95t-153.5 -35q-42 0 -79 8l-8 -13q-9 -16 -9 -26q0 -24 42 -24q26 0 78.5 1.5t76.5 1.5
q153 0 153 -123z" />
    <glyph glyph-name="Hcircumflex" unicode="&#x124;" horiz-adv-x="640" 
d="M589 0h-144v234h-249v-234h-144v600h144v-237h249v237h144v-600zM437 639l-117 76l-117 -76l-41 49l137 126h43l136 -126z" />
    <glyph glyph-name="hcircumflex" unicode="&#x125;" horiz-adv-x="531" 
d="M184 264v-264h-136v642h136v-295h8q43 140 160 140q66 0 100.5 -43.5t34.5 -122.5v-321h-136v283q0 37 -18 59t-54 22q-43 0 -69 -27.5t-26 -72.5zM234 652l-117 76l-117 -76l-41 49l137 126h43l136 -126z" />
    <glyph glyph-name="Hbar" unicode="&#x126;" horiz-adv-x="693" 
d="M470 331v83h-248v-83h248zM615 0h-145v209h-248v-209h-145v414h-62v92h62v94h145v-94h248v94h145v-94h63v-92h-63v-414z" />
    <glyph glyph-name="hbar" unicode="&#x127;" horiz-adv-x="542" 
d="M194 264v-264h-136v520h-50v71h50v51h136v-51h135v-71h-135v-173h8q43 140 160 140q66 0 100.5 -43.5t34.5 -122.5v-321h-136v283q0 37 -18 59t-54 22q-43 0 -69 -27.5t-26 -72.5z" />
    <glyph glyph-name="Itilde" unicode="&#x128;" horiz-adv-x="247" 
d="M196 0h-144v600h144v-600zM53 823q26 0 47 -13t32.5 -29t25 -29t26.5 -13q20 0 27.5 18.5t6.5 60.5h59q3 -24 3 -46q0 -61 -23 -93t-63 -32q-23 0 -43 13t-31.5 29t-26.5 29t-30 13q-19 0 -26.5 -17.5t-7.5 -60.5h-58q-3 25 -3 45q0 62 22.5 93.5t62.5 31.5z" />
    <glyph glyph-name="itilde" unicode="&#x129;" horiz-adv-x="250" 
d="M193 0h-136v474h136v-474zM54 705q26 0 47 -13t32.5 -29t25 -29t26.5 -13q20 0 27.5 18.5t6.5 60.5h59q3 -24 3 -46q0 -61 -23 -93t-63 -32q-23 0 -43 13t-31.5 29t-26.5 29t-30 13q-19 0 -26.5 -17.5t-7.5 -60.5h-58q-3 25 -3 45q0 62 22.5 93.5t62.5 31.5z" />
    <glyph glyph-name="Imacron" unicode="&#x12a;" horiz-adv-x="247" 
d="M196 0h-144v600h144v-600zM-14 757h275v-92h-275v92z" />
    <glyph glyph-name="imacron" unicode="&#x12b;" horiz-adv-x="250" 
d="M193 0h-136v474h136v-474zM-11 646h271v-92h-271v92z" />
    <glyph glyph-name="Ibreve" unicode="&#x12c;" horiz-adv-x="247" 
d="M196 0h-144v600h144v-600zM123 737q74 0 83 71h62q0 -82 -36.5 -119t-108.5 -37t-108.5 37t-36.5 119h62q9 -71 83 -71z" />
    <glyph glyph-name="ibreve" unicode="&#x12d;" horiz-adv-x="250" 
d="M193 0h-136v474h136v-474zM125 616q74 0 83 82h62q0 -87 -36 -127t-109 -40q-72 0 -108.5 40t-36.5 127h62q10 -82 83 -82z" />
    <glyph glyph-name="Iogonek" unicode="&#x12e;" horiz-adv-x="247" 
d="M196 0h-1q-55 -10 -78.5 -22t-23.5 -32q0 -28 50 -28q24 0 52 7l1 -87q-37 -5 -62 -5q-117 0 -117 76q0 65 99 91h-64v600h144v-600z" />
    <glyph glyph-name="iogonek" unicode="&#x12f;" horiz-adv-x="240" 
d="M191 541h-142v98h142v-98zM188 0q-55 -10 -78.5 -22t-23.5 -32q0 -28 50 -28q24 0 52 7l1 -87q-37 -5 -62 -5q-117 0 -117 76q0 65 99 91h-57v474h136v-474z" />
    <glyph glyph-name="Idotaccent" unicode="&#x130;" horiz-adv-x="247" 
d="M196 0h-144v600h144v-600zM59 786h131v-125h-131v125z" />
    <glyph glyph-name="dotlessi" unicode="&#x131;" horiz-adv-x="250" 
d="M193 0h-136v474h136v-474z" />
    <glyph glyph-name="IJ" unicode="&#x132;" horiz-adv-x="563" 
d="M196 0h-144v600h144v-600zM368 181v419h144v-418q0 -190 -175 -190q-39 0 -81 7l7 123q30 -5 49 -5q56 0 56 64z" />
    <glyph glyph-name="ij" unicode="&#x133;" horiz-adv-x="488" 
d="M191 541h-142v98h142v-98zM188 0h-136v474h136v-474zM437 27q0 -188 -171 -188q-16 0 -44 4l6 117q16 -3 32 -3q41 0 41 52v464h136v-446zM440 541h-142v98h142v-98z" />
    <glyph glyph-name="Jcircumflex" unicode="&#x134;" horiz-adv-x="316" 
d="M121 181v419h144v-418q0 -190 -175 -190q-39 0 -81 7l7 123q30 -5 49 -5q56 0 56 64zM312 639l-117 76l-117 -76l-41 49l137 126h43l136 -126z" />
    <glyph glyph-name="jcircumflex" unicode="&#x135;" horiz-adv-x="255" 
d="M197 16q0 -188 -171 -188q-16 0 -44 4l6 118q4 0 10.5 -1t11.5 -1.5t10 -0.5q41 0 41 52v474h136v-457zM217 528l-89 74l-88 -74l-42 45l109 121h43l108 -121z" />
    <glyph glyph-name="uni0136" unicode="&#x136;" horiz-adv-x="580" 
d="M417 0l-179 225h-42v-225h-144v600h144v-259h40l179 259h164v-11l-238 -295l244 -283v-11h-168zM264 -51h104l-59 -154h-84v9z" />
    <glyph glyph-name="uni0137" unicode="&#x137;" horiz-adv-x="503" 
d="M186 642v-353h37l121 185h155v-11l-169 -220l179 -232v-11h-155l-133 190h-35v-190h-136v642h136zM228 -51h104l-59 -154h-84v9z" />
    <glyph glyph-name="kgreenlandic" unicode="&#x138;" horiz-adv-x="503" 
d="M354 0l-133 190h-35v-190h-136v474h136v-185h37l121 185h155v-11l-169 -220l179 -232v-11h-155z" />
    <glyph glyph-name="Lacute" unicode="&#x139;" horiz-adv-x="473" 
d="M90 650l-22 69l257 96l32 -101zM196 600v-471h257v-129h-401v600h144z" />
    <glyph glyph-name="lacute" unicode="&#x13a;" horiz-adv-x="236" 
d="M186 642v-642h-136v642h136zM37 691l-22 69l257 96l32 -101z" />
    <glyph glyph-name="uni013B" unicode="&#x13b;" horiz-adv-x="473" 
d="M196 600v-471h257v-129h-401v600h144zM218 -51h104l-59 -154h-84v9z" />
    <glyph glyph-name="uni013C" unicode="&#x13c;" horiz-adv-x="236" 
d="M186 642v-642h-136v642h136zM83 -51h104l-59 -154h-84v9z" />
    <glyph glyph-name="Lcaron" unicode="&#x13d;" horiz-adv-x="473" 
d="M359 606h102l-31 -252h-84zM196 600v-471h257v-129h-401v600h144z" />
    <glyph glyph-name="lcaron" unicode="&#x13e;" horiz-adv-x="348" 
d="M186 642v-642h-136v642h136zM245 641h102l-31 -252h-84z" />
    <glyph glyph-name="Ldot" unicode="&#x13f;" horiz-adv-x="473" 
d="M320 412h127v-122h-127v122zM196 600v-471h257v-129h-401v600h144z" />
    <glyph glyph-name="ldot" unicode="&#x140;" horiz-adv-x="384" 
d="M186 642v-642h-136v642h136zM241 329h131v-125h-131v125z" />
    <glyph glyph-name="Lslash" unicode="&#x141;" horiz-adv-x="498" 
d="M221 600v-234l135 60v-89l-135 -60v-148h257v-129h-401v214l-61 -27v87l61 27v299h144z" />
    <glyph glyph-name="lslash" unicode="&#x142;" horiz-adv-x="290" 
d="M212 642v-274l70 37v-87l-70 -36v-282h-136v212l-68 -35v85l68 35v345h136z" />
    <glyph glyph-name="Nacute" unicode="&#x143;" horiz-adv-x="650" 
d="M408 0l-122 237q-47 97 -97 235l-16 -2q12 -178 12 -289v-181h-134v600h204l105 -201q54 -105 102 -249l16 2q-12 149 -12 263v185h133v-600h-191zM239 650l-22 69l257 96l32 -101z" />
    <glyph glyph-name="nacute" unicode="&#x144;" horiz-adv-x="531" 
d="M184 264v-264h-136v474h133v-127h9q21 68 62.5 104t97.5 36q67 0 102 -43.5t35 -122.5v-321h-136v283q0 81 -72 81q-43 0 -69 -27.5t-26 -72.5zM202 513l-34 66l236 136l49 -94z" />
    <glyph glyph-name="uni0145" unicode="&#x145;" horiz-adv-x="650" 
d="M408 0l-122 237q-47 97 -97 235l-16 -2q12 -178 12 -289v-181h-134v600h204l105 -201q54 -105 102 -249l16 2q-12 149 -12 263v185h133v-600h-191zM290 -51h104l-59 -154h-84v9z" />
    <glyph glyph-name="uni0146" unicode="&#x146;" horiz-adv-x="531" 
d="M184 264v-264h-136v474h133v-127h9q21 68 62.5 104t97.5 36q67 0 102 -43.5t35 -122.5v-321h-136v283q0 81 -72 81q-43 0 -69 -27.5t-26 -72.5zM232 -51h104l-59 -154h-84v9z" />
    <glyph glyph-name="Ncaron" unicode="&#x147;" horiz-adv-x="650" 
d="M408 0l-122 237q-47 97 -97 235l-16 -2q12 -178 12 -289v-181h-134v600h204l105 -201q54 -105 102 -249l16 2q-12 149 -12 263v185h133v-600h-191zM346 644h-43l-136 126l41 48l117 -76l117 76l41 -48z" />
    <glyph glyph-name="ncaron" unicode="&#x148;" horiz-adv-x="531" 
d="M184 264v-264h-136v474h133v-127h9q21 68 62.5 104t97.5 36q67 0 102 -43.5t35 -122.5v-321h-136v283q0 81 -72 81q-43 0 -69 -27.5t-26 -72.5zM288 525h-43l-136 145l45 48l113 -92l113 92l45 -48z" />
    <glyph glyph-name="napostrophe" unicode="&#x149;" horiz-adv-x="677" 
d="M60 600h139l-99 -284h-76v6zM317 264v-264h-136v474h133v-127h9q21 68 62.5 104t97.5 36q67 0 102 -43.5t35 -122.5v-321h-136v283q0 81 -72 81q-43 0 -69 -27.5t-26 -72.5z" />
    <glyph glyph-name="Eng" unicode="&#x14a;" horiz-adv-x="650" 
d="M52 0v600h203l116 -197q44 -77 95 -201h9q-9 137 -9 220v178h133v-584q0 -178 -175 -178q-43 0 -81 8l7 114q37 -7 56 -7q54 0 54 52l-148 229q-59 94 -126 235h-13q12 -180 12 -288v-181h-133z" />
    <glyph glyph-name="eng" unicode="&#x14b;" horiz-adv-x="531" 
d="M351 10v273q0 82 -72 82q-43 0 -69 -28t-26 -73v-264h-136v474h133v-127h9q21 68 62.5 104t97.5 36q67 0 102 -43.5t35 -122.5v-294q0 -188 -171 -188q-16 0 -44 4l6 118q30 -3 32 -3q41 0 41 52z" />
    <glyph glyph-name="Omacron" unicode="&#x14c;" horiz-adv-x="657" 
d="M328 -14q-144 0 -223.5 84.5t-79.5 231.5q0 145 81.5 228.5t221.5 83.5q142 0 222.5 -83.5t80.5 -228.5q0 -147 -79 -231.5t-224 -84.5zM328 110q160 0 160 192q0 88 -39 137t-121 49q-81 0 -120 -49t-39 -137q0 -192 159 -192zM191 757h275v-92h-275v92z" />
    <glyph glyph-name="omacron" unicode="&#x14d;" horiz-adv-x="538" 
d="M270 -14q-115 0 -180 67t-65 184q0 118 65.5 184t179.5 66q112 0 177.5 -66.5t65.5 -183.5t-65 -184t-178 -67zM269 373q-108 0 -108 -135q0 -136 108 -136t108 136q0 135 -108 135zM132 646h271v-92h-271v92z" />
    <glyph glyph-name="Obreve" unicode="&#x14e;" horiz-adv-x="657" 
d="M328 -14q-144 0 -223.5 84.5t-79.5 231.5q0 145 81.5 228.5t221.5 83.5q142 0 222.5 -83.5t80.5 -228.5q0 -147 -79 -231.5t-224 -84.5zM328 110q160 0 160 192q0 88 -39 137t-121 49q-81 0 -120 -49t-39 -137q0 -192 159 -192zM328 737q74 0 83 71h62q0 -82 -36.5 -119
t-108.5 -37t-108.5 37t-36.5 119h62q9 -71 83 -71z" />
    <glyph glyph-name="obreve" unicode="&#x14f;" horiz-adv-x="538" 
d="M270 -14q-115 0 -180 67t-65 184q0 118 65.5 184t179.5 66q112 0 177.5 -66.5t65.5 -183.5t-65 -184t-178 -67zM269 373q-108 0 -108 -135q0 -136 108 -136t108 136q0 135 -108 135zM267 616q74 0 83 82h62q0 -87 -36 -127t-109 -40q-72 0 -108.5 40t-36.5 127h62
q10 -82 83 -82z" />
    <glyph glyph-name="Ohungarumlaut" unicode="&#x150;" horiz-adv-x="657" 
d="M328 -14q-144 0 -223.5 84.5t-79.5 231.5q0 145 81.5 228.5t221.5 83.5q142 0 222.5 -83.5t80.5 -228.5q0 -147 -79 -231.5t-224 -84.5zM328 110q160 0 160 192q0 88 -39 137t-121 49q-81 0 -120 -49t-39 -137q0 -192 159 -192zM272 640l-62 36l85 156l83 -49zM416 640
l-58 41l96 150l79 -53z" />
    <glyph glyph-name="ohungarumlaut" unicode="&#x151;" horiz-adv-x="538" 
d="M270 -14q-115 0 -180 67t-65 184q0 118 65.5 184t179.5 66q112 0 177.5 -66.5t65.5 -183.5t-65 -184t-178 -67zM269 373q-108 0 -108 -135q0 -136 108 -136t108 136q0 135 -108 135zM201 518l-58 33l85 167l79 -45zM338 519l-55 39l101 159l74 -50z" />
    <glyph glyph-name="OE" unicode="&#x152;" horiz-adv-x="895" 
d="M337 124h63v351h-62q-83 0 -126 -45.5t-43 -127.5q0 -85 42.5 -131.5t125.5 -46.5zM338 0q-147 0 -230 80t-83 222q0 140 85 219t228 79h516v-125h-309v-116h284v-112h-284v-122h308v-125h-515z" />
    <glyph glyph-name="oe" unicode="&#x153;" horiz-adv-x="863" 
d="M269 373q-108 0 -108 -135q0 -136 108 -136t108 136q0 135 -108 135zM617 385q-49 0 -74.5 -27.5t-30.5 -88.5h199q0 116 -94 116zM639 -14q-148 0 -190 135h-9q-44 -135 -185 -135q-108 0 -169 67t-61 184q0 118 61.5 184t168.5 66q70 0 118 -35.5t69 -102.5h8
q42 138 189 138q97 0 147 -58.5t50 -158.5q0 -25 -3 -58h-321q4 -60 30.5 -88t77.5 -28q44 0 65 18t31 51l114 -31q-37 -148 -191 -148z" />
    <glyph glyph-name="Racute" unicode="&#x154;" horiz-adv-x="595" 
d="M304 479h-108v-160h108q52 0 76 19.5t24 61.5t-23 60.5t-77 18.5zM414 0l-127 207h-91v-207h-145v600h263q233 0 233 -195q0 -136 -119 -180l154 -214v-11h-168zM202 650l-22 69l257 96l32 -101z" />
    <glyph glyph-name="racute" unicode="&#x155;" horiz-adv-x="351" 
d="M184 0h-136v474h129v-154h11q21 94 51.5 126.5t80.5 32.5h14v-156h-28q-71 0 -96.5 -24t-25.5 -88v-211zM125 513l-34 66l236 136l49 -94z" />
    <glyph glyph-name="uni0156" unicode="&#x156;" horiz-adv-x="595" 
d="M261 -51h104l-59 -154h-84v9zM304 479h-108v-160h108q52 0 76 19.5t24 61.5t-23 60.5t-77 18.5zM414 0l-127 207h-91v-207h-145v600h263q233 0 233 -195q0 -136 -119 -180l154 -214v-11h-168z" />
    <glyph glyph-name="uni0157" unicode="&#x157;" horiz-adv-x="351" 
d="M184 0h-136v474h129v-154h11q21 94 51.5 126.5t80.5 32.5h14v-156h-28q-71 0 -96.5 -24t-25.5 -88v-211zM80 -51h104l-59 -154h-84v9z" />
    <glyph glyph-name="Rcaron" unicode="&#x158;" horiz-adv-x="595" 
d="M304 479h-108v-160h108q52 0 76 19.5t24 61.5t-23 60.5t-77 18.5zM414 0l-127 207h-91v-207h-145v600h263q233 0 233 -195q0 -136 -119 -180l154 -214v-11h-168zM310 644h-43l-136 126l41 48l117 -76l117 76l41 -48z" />
    <glyph glyph-name="rcaron" unicode="&#x159;" horiz-adv-x="351" 
d="M184 0h-136v474h129v-154h11q21 94 51.5 126.5t80.5 32.5h14v-156h-28q-71 0 -96.5 -24t-25.5 -88v-211zM211 525h-43l-136 145l45 48l113 -92l113 92l45 -48z" />
    <glyph glyph-name="Sacute" unicode="&#x15a;" horiz-adv-x="572" 
d="M293 -14q-246 1 -270 191l137 29q20 -105 139 -105q100 0 100 60q0 33 -29 51t-112 32q-119 19 -168 65.5t-49 124.5q0 86 61 133t182 47q217 0 246 -176l-143 -28q-11 49 -34.5 70.5t-75.5 21.5q-94 0 -94 -60q0 -30 26.5 -48t108.5 -33q130 -23 178 -70t48 -120
q0 -185 -251 -185zM184 650l-22 69l257 96l32 -101z" />
    <glyph glyph-name="sacute" unicode="&#x15b;" horiz-adv-x="474" 
d="M242 -14q-112 0 -161.5 39t-60.5 111l122 25q18 -79 103 -79q69 0 70 46q0 23 -21.5 36.5t-84.5 25.5q-96 21 -135 55.5t-39 96.5q0 70 50 107.5t149 37.5q97 0 141.5 -34.5t58.5 -102.5l-121 -25q-8 37 -26.5 52.5t-55.5 15.5q-67 0 -67 -43q0 -22 19.5 -36t78.5 -26
q105 -22 144.5 -58.5t39.5 -95.5q0 -148 -204 -148zM176 513l-34 66l236 136l49 -94z" />
    <glyph glyph-name="Scircumflex" unicode="&#x15c;" horiz-adv-x="572" 
d="M293 -14q-246 1 -270 191l137 29q20 -105 139 -105q100 0 100 60q0 33 -29 51t-112 32q-119 19 -168 65.5t-49 124.5q0 86 61 133t182 47q217 0 246 -176l-143 -28q-11 49 -34.5 70.5t-75.5 21.5q-94 0 -94 -60q0 -30 26.5 -48t108.5 -33q130 -23 178 -70t48 -120
q0 -185 -251 -185zM399 639l-117 76l-117 -76l-41 49l137 126h43l136 -126z" />
    <glyph glyph-name="scircumflex" unicode="&#x15d;" horiz-adv-x="474" 
d="M242 -14q-112 0 -161.5 39t-60.5 111l122 25q18 -79 103 -79q69 0 70 46q0 23 -21.5 36.5t-84.5 25.5q-96 21 -135 55.5t-39 96.5q0 70 50 107.5t149 37.5q97 0 141.5 -34.5t58.5 -102.5l-121 -25q-8 37 -26.5 52.5t-55.5 15.5q-67 0 -67 -43q0 -22 19.5 -36t78.5 -26
q105 -22 144.5 -58.5t39.5 -95.5q0 -148 -204 -148zM351 514l-113 92l-113 -92l-45 48l137 146h43l136 -146z" />
    <glyph glyph-name="uni015E" unicode="&#x15e;" horiz-adv-x="572" 
d="M293 -14h-1l-12 -32q16 6 35 6q72 0 72 -60q0 -26 -22 -47t-71 -21q-62 0 -102 28l27 42q36 -22 75 -22q35 0 35 25q0 23 -35 23q-17 0 -37 -6l-35 14l19 53q-196 19 -218 188l137 29q20 -105 139 -105q100 0 100 60q0 33 -29 51t-112 32q-119 19 -168 65.5t-49 124.5
q0 86 61 133t182 47q217 0 246 -176l-143 -28q-11 49 -34.5 70.5t-75.5 21.5q-94 0 -94 -60q0 -30 26.5 -48t108.5 -33q130 -23 178 -70t48 -120q0 -185 -251 -185z" />
    <glyph glyph-name="uni015F" unicode="&#x15f;" horiz-adv-x="474" 
d="M242 -14h-2l-12 -32q16 6 35 6q72 0 72 -60q0 -26 -22 -47t-71 -21q-62 0 -102 28l27 42q36 -22 75 -22q35 0 35 25q0 23 -35 23q-17 0 -37 -6l-35 14l19 53q-83 9 -121.5 47t-47.5 100l122 25q18 -79 103 -79q69 0 70 46q0 23 -21.5 36.5t-84.5 25.5q-96 21 -135 55.5
t-39 96.5q0 70 50 107.5t149 37.5q97 0 141.5 -34.5t58.5 -102.5l-121 -25q-8 37 -26.5 52.5t-55.5 15.5q-67 0 -67 -43q0 -22 19.5 -36t78.5 -26q105 -22 144.5 -58.5t39.5 -95.5q0 -148 -204 -148z" />
    <glyph glyph-name="Scaron" unicode="&#x160;" horiz-adv-x="572" 
d="M293 -14q-246 1 -270 191l137 29q20 -105 139 -105q100 0 100 60q0 33 -29 51t-112 32q-119 19 -168 65.5t-49 124.5q0 86 61 133t182 47q217 0 246 -176l-143 -28q-11 49 -34.5 70.5t-75.5 21.5q-94 0 -94 -60q0 -30 26.5 -48t108.5 -33q130 -23 178 -70t48 -120
q0 -185 -251 -185zM303 644h-43l-136 126l41 48l117 -76l117 76l41 -48z" />
    <glyph glyph-name="scaron" unicode="&#x161;" horiz-adv-x="474" 
d="M242 -14q-112 0 -161.5 39t-60.5 111l122 25q18 -79 103 -79q69 0 70 46q0 23 -21.5 36.5t-84.5 25.5q-96 21 -135 55.5t-39 96.5q0 70 50 107.5t149 37.5q97 0 141.5 -34.5t58.5 -102.5l-121 -25q-8 37 -26.5 52.5t-55.5 15.5q-67 0 -67 -43q0 -22 19.5 -36t78.5 -26
q105 -22 144.5 -58.5t39.5 -95.5q0 -148 -204 -148zM259 525h-43l-136 145l45 48l113 -92l113 92l45 -48z" />
    <glyph glyph-name="Tcommaaccent" unicode="&#x162;" horiz-adv-x="516" 
d="M13 468v132h490v-132h-173v-468h-67l-17 -46q16 6 35 6q72 0 72 -60q0 -26 -22 -47t-71 -21q-62 0 -102 28l27 42q36 -22 75 -22q35 0 35 25q0 23 -35 23q-17 0 -37 -6l-35 14l23 64h-25v468h-173z" />
    <glyph glyph-name="tcommaaccent" unicode="&#x163;" horiz-adv-x="361" 
d="M73 149v217h-58v108h58v122h136v-122h125v-108h-125v-195q0 -29 12.5 -43t42.5 -14q26 0 62 12l15 -122q-59 -18 -112 -18q-20 0 -38 3l-13 -35q16 6 35 6q72 0 72 -60q0 -26 -22 -47t-71 -21q-62 0 -102 28l27 42q36 -22 75 -22q35 0 35 25q0 23 -35 23q-17 0 -37 -6
l-35 14l25 69q-72 40 -72 144z" />
    <glyph glyph-name="Tcaron" unicode="&#x164;" horiz-adv-x="516" 
d="M503 468h-173v-468h-144v468h-173v132h490v-132zM279 644h-43l-136 126l41 48l117 -76l117 76l41 -48z" />
    <glyph glyph-name="tcaron" unicode="&#x165;" horiz-adv-x="368" 
d="M282 684h98l-22 -160h-79zM73 149v217h-58v108h58v122h136v-122h125v-108h-125v-195q0 -29 12.5 -43t42.5 -14q26 0 62 12l15 -122q-59 -18 -112 -18q-78 0 -117 45.5t-39 117.5z" />
    <glyph glyph-name="Tbar" unicode="&#x166;" horiz-adv-x="521" 
d="M17 468v132h490v-132h-173v-173h126v-79h-126v-216h-144v216h-127v79h127v173h-173z" />
    <glyph glyph-name="tbar" unicode="&#x167;" horiz-adv-x="361" 
d="M73 149v65h-44v72h44v80h-58v108h58v122h136v-122h125v-108h-125v-80h108v-72h-108v-43q0 -29 12.5 -43t42.5 -14q26 0 62 12l15 -122q-59 -18 -112 -18q-78 0 -117 45.5t-39 117.5z" />
    <glyph glyph-name="Utilde" unicode="&#x168;" horiz-adv-x="632" 
d="M318 114q66 0 92.5 32.5t26.5 96.5v357h145v-368q0 -119 -68 -182t-196 -63t-197 63.5t-69 181.5v368h144v-355q0 -65 27 -98t95 -33zM246 823q26 0 47 -13t32.5 -29t25 -29t26.5 -13q20 0 27.5 18.5t6.5 60.5h59q3 -24 3 -46q0 -61 -23 -93t-63 -32q-23 0 -43 13
t-31.5 29t-26.5 29t-30 13q-19 0 -26.5 -17.5t-7.5 -60.5h-58q-3 25 -3 45q0 62 22.5 93.5t62.5 31.5z" />
    <glyph glyph-name="utilde" unicode="&#x169;" horiz-adv-x="533" 
d="M352 0v126h-10q-20 -68 -61.5 -104t-98.5 -36q-66 0 -101 44t-35 123v321h136v-283q0 -82 72 -82q43 0 68.5 28t25.5 73v264h137v-474h-133zM195 705q26 0 47 -13t32.5 -29t25 -29t26.5 -13q20 0 27.5 18.5t6.5 60.5h59q3 -24 3 -46q0 -61 -23 -93t-63 -32q-23 0 -43 13
t-31.5 29t-26.5 29t-30 13q-19 0 -26.5 -17.5t-7.5 -60.5h-58q-3 25 -3 45q0 62 22.5 93.5t62.5 31.5z" />
    <glyph glyph-name="Umacron" unicode="&#x16a;" horiz-adv-x="632" 
d="M318 114q66 0 92.5 32.5t26.5 96.5v357h145v-368q0 -119 -68 -182t-196 -63t-197 63.5t-69 181.5v368h144v-355q0 -65 27 -98t95 -33zM179 757h275v-92h-275v92z" />
    <glyph glyph-name="umacron" unicode="&#x16b;" horiz-adv-x="533" 
d="M352 0v126h-10q-20 -68 -61.5 -104t-98.5 -36q-66 0 -101 44t-35 123v321h136v-283q0 -82 72 -82q43 0 68.5 28t25.5 73v264h137v-474h-133zM129 646h271v-92h-271v92z" />
    <glyph glyph-name="Ubreve" unicode="&#x16c;" horiz-adv-x="632" 
d="M318 114q66 0 92.5 32.5t26.5 96.5v357h145v-368q0 -119 -68 -182t-196 -63t-197 63.5t-69 181.5v368h144v-355q0 -65 27 -98t95 -33zM316 737q74 0 83 71h62q0 -82 -36.5 -119t-108.5 -37t-108.5 37t-36.5 119h62q9 -71 83 -71z" />
    <glyph glyph-name="ubreve" unicode="&#x16d;" horiz-adv-x="533" 
d="M352 0v126h-10q-20 -68 -61.5 -104t-98.5 -36q-66 0 -101 44t-35 123v321h136v-283q0 -82 72 -82q43 0 68.5 28t25.5 73v264h137v-474h-133zM265 616q74 0 83 82h62q0 -87 -36 -127t-109 -40q-72 0 -108.5 40t-36.5 127h62q10 -82 83 -82z" />
    <glyph glyph-name="Uring" unicode="&#x16e;" horiz-adv-x="632" 
d="M318 114q66 0 92.5 32.5t26.5 96.5v357h145v-368q0 -119 -68 -182t-196 -63t-197 63.5t-69 181.5v368h144v-355q0 -65 27 -98t95 -33zM431 751q0 -50 -31 -79.5t-83 -29.5q-53 0 -83.5 29.5t-30.5 78.5q0 50 30.5 79.5t83.5 29.5q52 0 83 -29.5t31 -78.5zM269 750
q0 -21 13 -33.5t35 -12.5t35 12.5t13 34.5q0 21 -13 33.5t-35 12.5t-35 -12.5t-13 -34.5z" />
    <glyph glyph-name="uring" unicode="&#x16f;" horiz-adv-x="533" 
d="M352 0v126h-10q-20 -68 -61.5 -104t-98.5 -36q-66 0 -101 44t-35 123v321h136v-283q0 -82 72 -82q43 0 68.5 28t25.5 73v264h137v-474h-133zM215 639q0 -25 13.5 -39t36.5 -14t37 14t14 39t-14 38.5t-37 13.5t-36.5 -13.5t-13.5 -38.5zM382 639q0 -52 -31.5 -83
t-85.5 -31t-85 31t-31 83t31 83t85 31t85.5 -31t31.5 -83z" />
    <glyph glyph-name="Uhungarumlaut" unicode="&#x170;" horiz-adv-x="632" 
d="M318 114q66 0 92.5 32.5t26.5 96.5v357h145v-368q0 -119 -68 -182t-196 -63t-197 63.5t-69 181.5v368h144v-355q0 -65 27 -98t95 -33zM260 640l-62 36l85 156l83 -49zM404 640l-58 41l96 150l79 -53z" />
    <glyph glyph-name="uhungarumlaut" unicode="&#x171;" horiz-adv-x="533" 
d="M352 0v126h-10q-20 -68 -61.5 -104t-98.5 -36q-66 0 -101 44t-35 123v321h136v-283q0 -82 72 -82q43 0 68.5 28t25.5 73v264h137v-474h-133zM336 519l-55 39l101 159l74 -50zM199 518l-58 33l85 167l79 -45z" />
    <glyph glyph-name="Uogonek" unicode="&#x172;" horiz-adv-x="632" 
d="M318 114q66 0 92.5 32.5t26.5 96.5v357h145v-368q0 -105 -53.5 -166.5t-154.5 -74.5q-58 -16 -58 -45q0 -28 50 -28q24 0 52 7l1 -87q-37 -5 -62 -5q-117 0 -117 76q0 51 63 78q-121 4 -186 67t-65 178v368h144v-355q0 -65 27 -98t95 -33z" />
    <glyph glyph-name="uogonek" unicode="&#x173;" horiz-adv-x="533" 
d="M485 -162q-37 -5 -62 -5q-117 0 -117 76q0 65 99 91h-53v126h-10q-20 -68 -61.5 -104t-98.5 -36q-66 0 -101 44t-35 123v321h136v-283q0 -82 72 -82q43 0 68.5 28t25.5 73v264h137v-474h-1q-55 -10 -78.5 -22t-23.5 -32q0 -28 50 -28q24 0 52 7z" />
    <glyph glyph-name="Wcircumflex" unicode="&#x174;" horiz-adv-x="856" 
d="M379 253l-41 -253h-200l-146 600h155l51 -257q27 -148 37 -220h22q16 119 35 220l52 257h182l52 -257q15 -83 33 -220h22q5 36 36 220l47 257h148l-143 -600h-210l-43 253q-24 151 -34 229h-18q-14 -97 -37 -229zM545 639l-117 76l-117 -76l-41 49l137 126h43l136 -126z
" />
    <glyph glyph-name="wcircumflex" unicode="&#x175;" horiz-adv-x="748" 
d="M457 474l39 -187q19 -84 34 -183h17q5 27 11 57t13.5 67t12.5 60l36 186h134l-131 -474h-178l-40 204q-16 88 -26 167h-17q-7 -53 -26 -167l-37 -204h-173l-132 474h140l42 -186q28 -120 38 -184h18q15 94 33 183l39 187h153zM489 514l-113 92l-113 -92l-45 48l137 146
h43l136 -146z" />
    <glyph glyph-name="Ycircumflex" unicode="&#x176;" horiz-adv-x="549" 
d="M347 0h-144v190l-217 399v11h159l121 -287h17l125 287h155v-11l-216 -398v-191zM391 639l-117 76l-117 -76l-41 49l137 126h43l136 -126z" />
    <glyph glyph-name="ycircumflex" unicode="&#x177;" horiz-adv-x="485" 
d="M84 -168q-34 0 -78 7l20 115q35 -7 61 -7q38 0 58.5 11.5t36.5 47.5l-178 468h149l47 -174q5 -19 21.5 -79t24.5 -93h17q5 20 14.5 55.5t16.5 63t12 50.5l44 177h146l-187 -476q-35 -89 -86 -127.5t-139 -38.5zM359 514l-113 92l-113 -92l-45 48l137 146h43l136 -146z
" />
    <glyph glyph-name="Ydieresis" unicode="&#x178;" horiz-adv-x="549" 
d="M347 0h-144v190l-217 399v11h159l121 -287h17l125 287h155v-11l-216 -398v-191zM126 774h121v-117h-121v117zM297 774h121v-117h-121v117z" />
    <glyph glyph-name="Zacute" unicode="&#x179;" horiz-adv-x="581" 
d="M543 132v-132h-510v129l325 339l-7 14q-118 -14 -175 -14h-133v132h496v-128l-328 -343l6 -11q105 14 171 14h155zM202 650l-22 69l257 96l32 -101z" />
    <glyph glyph-name="zacute" unicode="&#x17a;" horiz-adv-x="500" 
d="M334 115h127v-115h-426v117l270 245l-5 11q-96 -14 -161 -14h-96v115h415v-117l-271 -247l4 -9q100 14 143 14zM182 513l-34 66l236 136l49 -94z" />
    <glyph glyph-name="Zdotaccent" unicode="&#x17b;" horiz-adv-x="581" 
d="M543 132v-132h-510v129l325 339l-7 14q-118 -14 -175 -14h-133v132h496v-128l-328 -343l6 -11q105 14 171 14h155zM223 786h131v-125h-131v125z" />
    <glyph glyph-name="zdotaccent" unicode="&#x17c;" horiz-adv-x="500" 
d="M334 115h127v-115h-426v117l270 245l-5 11q-96 -14 -161 -14h-96v115h415v-117l-271 -247l4 -9q100 14 143 14zM183 679h131v-125h-131v125z" />
    <glyph glyph-name="Zcaron" unicode="&#x17d;" horiz-adv-x="581" 
d="M543 132v-132h-510v129l325 339l-7 14q-118 -14 -175 -14h-133v132h496v-128l-328 -343l6 -11q105 14 171 14h155zM309 644h-43l-136 126l41 48l117 -76l117 76l41 -48z" />
    <glyph glyph-name="zcaron" unicode="&#x17e;" horiz-adv-x="500" 
d="M334 115h127v-115h-426v117l270 245l-5 11q-96 -14 -161 -14h-96v115h415v-117l-271 -247l4 -9q100 14 143 14zM269 525h-43l-136 145l45 48l113 -92l113 92l45 -48z" />
    <glyph glyph-name="Aringacute" unicode="&#x1fa;" horiz-adv-x="598" 
d="M214 791l-20 66l250 92l30 -96zM251 659q0 -23 13 -36t36 -13t36.5 13.5t13.5 36.5q0 22 -13.5 35.5t-36.5 13.5t-36 -13.5t-13 -36.5zM237 312l-23 -74h166l-23 74q-25 81 -47 164h-24q-20 -71 -49 -164zM454 0l-41 133h-232l-41 -133h-149l208 594q-17 28 -17 65
q0 53 32 85t86 32t86 -31.5t32 -84.5q0 -38 -17 -66l207 -594h-154z" />
    <glyph glyph-name="aringacute" unicode="&#x1fb;" horiz-adv-x="503" 
d="M177 756l-20 67l246 90l29 -96zM219 95q46 0 73.5 24.5t27.5 63.5v19h-98q-33 0 -52.5 -14t-19.5 -39q0 -54 69 -54zM327 1v113h-12q-39 -123 -155 -123q-63 0 -101 33.5t-38 100.5t42.5 105.5t132.5 38.5h124v33q0 77 -73 77q-67 0 -80 -68l-128 29q13 68 66 107.5
t147 39.5q106 0 154.5 -46.5t48.5 -138.5v-301h-128zM203 626q0 -21 13 -33.5t35 -12.5t35 12.5t13 34.5q0 21 -13 33.5t-35 12.5t-35 -12.5t-13 -34.5zM365 627q0 -50 -31 -79.5t-83 -29.5q-53 0 -83.5 29.5t-30.5 78.5q0 50 30.5 79.5t83.5 29.5q52 0 83 -29.5t31 -78.5z
" />
    <glyph glyph-name="AEacute" unicode="&#x1fc;" horiz-adv-x="871" 
d="M351 650l-22 69l257 96l32 -101zM376 0v125h-178l-54 -125h-149v6l277 594h558v-125h-309v-116h284v-112h-284v-122h308v-125h-453zM278 312l-34 -80h132v250h-32q-34 -96 -66 -170z" />
    <glyph glyph-name="aeacute" unicode="&#x1fd;" horiz-adv-x="806" 
d="M220 94q46 0 73.5 24.5t27.5 63.5v25h-97q-34 0 -53.5 -15.5t-19.5 -42.5q0 -55 69 -55zM560 385q-49 0 -74.5 -28t-29.5 -89h199q1 117 -95 117zM774 134q-18 -71 -65.5 -109.5t-144.5 -38.5q-77 0 -133.5 31.5t-79.5 96.5q-45 -126 -184 -126q-64 0 -105 34.5
t-41 102.5q0 64 43 101t133 37h124v38q0 77 -74 77q-66 0 -79 -68l-128 29q13 67 63 107t133 40q122 0 162 -82q54 83 166 83q106 0 160.5 -58t54.5 -159q0 -37 -3 -59h-320q4 -60 30 -87.5t77 -27.5q44 0 65 18t31 51zM335 513l-34 66l236 136l49 -94z" />
    <glyph glyph-name="Oslashacute" unicode="&#x1fe;" horiz-adv-x="656" 
d="M328 -14q-110 0 -184 51l-32 -37h-107v6l82 85q-62 82 -62 211q0 145 81.5 228.5t221.5 83.5q112 0 188 -54l34 40h104v-6l-83 -88q60 -80 60 -204q0 -147 -79 -231.5t-224 -84.5zM162 302q0 -65 19 -109l248 269q-41 30 -101 30q-84 0 -125 -52.5t-41 -137.5zM243 650
l-22 69l257 96l32 -101zM328 106q166 0 166 196q0 58 -19 100l-246 -269q37 -27 99 -27z" />
    <glyph glyph-name="oslashacute" unicode="&#x1ff;" horiz-adv-x="538" 
d="M270 -14q-91 0 -152 43l-22 -29h-97v6l70 72q-44 62 -44 159q0 118 65.5 184t179.5 66q89 0 150 -43l24 30h94v-6l-69 -73q44 -63 44 -158q0 -117 -65 -184t-178 -67zM269 382q-122 0 -122 -144q0 -40 9 -70l187 194q-29 20 -74 20zM206 513l-34 66l236 136l49 -94z
M269 92q121 0 121 146q0 38 -9 67l-185 -194q28 -19 73 -19z" />
    <glyph glyph-name="uni0218" unicode="&#x218;" horiz-adv-x="572" 
d="M293 -14q-246 1 -270 191l137 29q20 -105 139 -105q100 0 100 60q0 33 -29 51t-112 32q-119 19 -168 65.5t-49 124.5q0 86 61 133t182 47q217 0 246 -176l-143 -28q-11 49 -34.5 70.5t-75.5 21.5q-94 0 -94 -60q0 -30 26.5 -48t108.5 -33q130 -23 178 -70t48 -120
q0 -185 -251 -185zM246 -51h104l-59 -154h-84v9z" />
    <glyph glyph-name="uni0219" unicode="&#x219;" horiz-adv-x="474" 
d="M242 -14q-112 0 -161.5 39t-60.5 111l122 25q18 -79 103 -79q69 0 70 46q0 23 -21.5 36.5t-84.5 25.5q-96 21 -135 55.5t-39 96.5q0 70 50 107.5t149 37.5q97 0 141.5 -34.5t58.5 -102.5l-121 -25q-8 37 -26.5 52.5t-55.5 15.5q-67 0 -67 -43q0 -22 19.5 -36t78.5 -26
q105 -22 144.5 -58.5t39.5 -95.5q0 -148 -204 -148zM198 -51h104l-59 -154h-84v9z" />
    <glyph glyph-name="uni021A" unicode="&#x21a;" horiz-adv-x="516" 
d="M13 468v132h490v-132h-173v-468h-144v468h-173zM222 -51h104l-59 -154h-84v9z" />
    <glyph glyph-name="uni021B" unicode="&#x21b;" horiz-adv-x="361" 
d="M73 149v217h-58v108h58v122h136v-122h125v-108h-125v-195q0 -29 12.5 -43t42.5 -14q26 0 62 12l15 -122q-59 -18 -112 -18q-78 0 -117 45.5t-39 117.5zM152 -51h104l-59 -154h-84v9z" />
    <glyph glyph-name="circumflex" unicode="&#x2c6;" horiz-adv-x="356" 
d="M291 514l-113 92l-113 -92l-45 48l137 146h43l136 -146z" />
    <glyph glyph-name="caron" unicode="&#x2c7;" horiz-adv-x="356" 
d="M199 525h-43l-136 145l45 48l113 -92l113 92l45 -48z" />
    <glyph glyph-name="breve" unicode="&#x2d8;" horiz-adv-x="327" 
d="M167 616q74 0 83 82h62q0 -87 -36 -127t-109 -40q-72 0 -108.5 40t-36.5 127h62q10 -82 83 -82z" />
    <glyph glyph-name="dotaccent" unicode="&#x2d9;" horiz-adv-x="190" 
d="M30 679h131v-125h-131v125z" />
    <glyph glyph-name="ring" unicode="&#x2da;" horiz-adv-x="296" 
d="M265 639q0 -52 -31.5 -83t-85.5 -31t-85 31t-31 83t31 83t85 31t85.5 -31t31.5 -83zM98 639q0 -25 13.5 -39t36.5 -14t37 14t14 39t-13.5 38.5t-37.5 13.5q-23 0 -36.5 -13.5t-13.5 -38.5z" />
    <glyph glyph-name="ogonek" unicode="&#x2db;" horiz-adv-x="219" 
d="M182 12l16 -12q-55 -10 -78.5 -22t-23.5 -32q0 -28 50 -28q24 0 52 7l1 -87q-37 -5 -62 -5q-117 0 -117 76q0 84 162 103z" />
    <glyph glyph-name="tilde" unicode="&#x2dc;" horiz-adv-x="353" 
d="M108 705q26 0 47 -13t32.5 -29t25 -29t26.5 -13q20 0 27.5 18.5t6.5 60.5h59q3 -24 3 -46q0 -61 -23 -93t-63 -32q-23 0 -43 13t-31.5 29t-26.5 29t-30 13q-19 0 -26.5 -17.5t-7.5 -60.5h-58q-3 25 -3 45q0 62 22.5 93.5t62.5 31.5z" />
    <glyph glyph-name="hungarumlaut" unicode="&#x2dd;" horiz-adv-x="343" 
d="M80 518l-58 33l85 167l79 -45zM217 519l-55 39l101 159l74 -50z" />
    <glyph glyph-name="Wgrave" unicode="&#x1e80;" horiz-adv-x="856" 
d="M379 253l-41 -253h-200l-146 600h155l51 -257q27 -148 37 -220h22q16 119 35 220l52 257h182l52 -257q15 -83 33 -220h22q5 36 36 220l47 257h148l-143 -600h-210l-43 253q-24 151 -34 229h-18q-14 -97 -37 -229zM509 650l-267 65l32 99l257 -95z" />
    <glyph glyph-name="wgrave" unicode="&#x1e81;" horiz-adv-x="748" 
d="M457 474l39 -187q19 -84 34 -183h17q5 27 11 57t13.5 67t12.5 60l36 186h134l-131 -474h-178l-40 204q-16 88 -26 167h-17q-7 -53 -26 -167l-37 -204h-173l-132 474h140l42 -186q28 -120 38 -184h18q15 94 33 183l39 187h153zM458 513l-252 108l50 94l235 -136z" />
    <glyph glyph-name="Wacute" unicode="&#x1e82;" horiz-adv-x="856" 
d="M379 253l-41 -253h-200l-146 600h155l51 -257q27 -148 37 -220h22q16 119 35 220l52 257h182l52 -257q15 -83 33 -220h22q5 36 36 220l47 257h148l-143 -600h-210l-43 253q-24 151 -34 229h-18q-14 -97 -37 -229zM341 650l-22 69l257 96l32 -101z" />
    <glyph glyph-name="wacute" unicode="&#x1e83;" horiz-adv-x="748" 
d="M457 474l39 -187q19 -84 34 -183h17q5 27 11 57t13.5 67t12.5 60l36 186h134l-131 -474h-178l-40 204q-16 88 -26 167h-17q-7 -53 -26 -167l-37 -204h-173l-132 474h140l42 -186q28 -120 38 -184h18q15 94 33 183l39 187h153zM310 513l-34 66l236 136l49 -94z" />
    <glyph glyph-name="Wdieresis" unicode="&#x1e84;" horiz-adv-x="856" 
d="M379 253l-41 -253h-200l-146 600h155l51 -257q27 -148 37 -220h22q16 119 35 220l52 257h182l52 -257q15 -83 33 -220h22q5 36 36 220l47 257h148l-143 -600h-210l-43 253q-24 151 -34 229h-18q-14 -97 -37 -229zM280 774h121v-117h-121v117zM451 774h121v-117h-121v117z
" />
    <glyph glyph-name="wdieresis" unicode="&#x1e85;" horiz-adv-x="748" 
d="M457 474l39 -187q19 -84 34 -183h17q5 27 11 57t13.5 67t12.5 60l36 186h134l-131 -474h-178l-40 204q-16 88 -26 167h-17q-7 -53 -26 -167l-37 -204h-173l-132 474h140l42 -186q28 -120 38 -184h18q15 94 33 183l39 187h153zM230 671h121v-117h-121v117zM401 671h121
v-117h-121v117z" />
    <glyph glyph-name="uni1E9E" unicode="&#x1e9e;" horiz-adv-x="607" 
d="M397 -10q-103 0 -158 55l41 113q49 -46 119 -46q55 0 55 40q0 21 -16.5 34t-55.5 30q-30 13 -44 20t-36 23t-31.5 37t-9.5 48q0 91 132 133l-1 10q-47 -7 -112 -7q-84 0 -84 -92v-388h-144v393q0 100 63 153.5t184 53.5h219v-117q-130 -51 -130 -104q0 -22 16 -36t48 -29
q31 -15 49.5 -26.5t39 -31t30.5 -46t10 -60.5q0 -160 -184 -160z" />
    <glyph glyph-name="endash" unicode="&#x2013;" horiz-adv-x="476" 
d="M18 307h440v-124h-440v124z" />
    <glyph glyph-name="emdash" unicode="&#x2014;" horiz-adv-x="860" 
d="M18 307h824v-124h-824v124z" />
    <glyph glyph-name="quoteleft" unicode="&#x2018;" horiz-adv-x="217" 
d="M156 316h-138l99 284h76v-6z" />
    <glyph glyph-name="quoteright" unicode="&#x2019;" horiz-adv-x="217" 
d="M60 600h139l-99 -284h-76v6z" />
    <glyph glyph-name="quotesinglbase" unicode="&#x201a;" horiz-adv-x="215" 
d="M59 149h139l-99 -284h-76v6z" />
    <glyph glyph-name="quotedblleft" unicode="&#x201c;" horiz-adv-x="399" 
d="M158 316h-138l99 284h76v-6zM341 316h-138l99 284h76v-6z" />
    <glyph glyph-name="quotedblright" unicode="&#x201d;" horiz-adv-x="401" 
d="M60 600h139l-99 -284h-76v6zM245 600h139l-99 -284h-76v6z" />
    <glyph glyph-name="quotedblbase" unicode="&#x201e;" horiz-adv-x="397" 
d="M53 149h139l-99 -284h-76v6zM238 149h139l-99 -284h-76v6z" />
    <glyph glyph-name="dagger" unicode="&#x2020;" horiz-adv-x="603" 
d="M373 -210h-144v578h-94v-169h-111v275h205v196h144v-196h206v-275h-112v169h-94v-578z" />
    <glyph glyph-name="daggerdbl" unicode="&#x2021;" horiz-adv-x="620" 
d="M238 670h144v-181h205v-190h-111v85h-94v-279h94v85h111v-190h-205v-210h-144v210h-205v190h111v-85h94v279h-94v-85h-111v190h205v181z" />
    <glyph glyph-name="bullet" unicode="&#x2022;" horiz-adv-x="290" 
d="M37 350h217v-208h-217v208z" />
    <glyph glyph-name="ellipsis" unicode="&#x2026;" horiz-adv-x="613" 
d="M24 143h148v-143h-148v143zM234 143h148v-143h-148v143zM445 143h148v-143h-148v143z" />
    <glyph glyph-name="perthousand" unicode="&#x2030;" horiz-adv-x="1129" 
d="M940 -10q-80 0 -127 47.5t-47 129.5q0 81 46.5 127.5t127.5 46.5t128 -46.5t47 -127.5q0 -82 -47 -129.5t-128 -47.5zM940 79q33 0 51 22.5t18 65.5q0 42 -18.5 63.5t-50.5 21.5t-50.5 -21.5t-18.5 -63.5q0 -43 18 -65.5t51 -22.5zM200 260q-81 0 -128 47t-47 129
q0 81 47 128t128 47q80 0 127 -46.5t47 -128.5t-46.5 -129t-127.5 -47zM199 349q33 0 51.5 22.5t18.5 64.5t-18.5 64t-50.5 22t-50.5 -22t-18.5 -64t18 -64.5t50 -22.5zM564 -10q-80 0 -127 47.5t-47 129.5q0 81 46.5 127.5t127.5 46.5t128 -46.5t47 -127.5
q0 -82 -47 -129.5t-128 -47.5zM564 79q33 0 51 22.5t18 65.5q0 42 -18.5 63.5t-50.5 21.5t-50.5 -21.5t-18.5 -63.5q0 -43 18 -65.5t51 -22.5zM531 600h193v-6l-303 -265l-21 16zM237 0h-193v6l303 265l21 -15z" />
    <glyph glyph-name="guilsinglleft" unicode="&#x2039;" horiz-adv-x="374" 
d="M361 32h-132l-214 219v14l214 219h132v-13l-204 -213l204 -213v-13z" />
    <glyph glyph-name="guilsinglright" unicode="&#x203a;" horiz-adv-x="375" 
d="M146 30h-132v13l204 213l-204 213v13h132l214 -219v-14z" />
    <glyph glyph-name="fraction" unicode="&#x2044;" horiz-adv-x="39" 
d="M167 600h193v-6l-303 -265l-21 16zM-127 0h-193v6l303 265l21 -15z" />
    <glyph glyph-name="Euro" unicode="&#x20ac;" horiz-adv-x="663" 
d="M360 -14q-113 0 -184.5 59.5t-91.5 169.5h-64v52h58q-1 11 -1 35q0 18 1 26h-58v52h63q19 111 93 172.5t188 61.5q116 0 184.5 -60.5t82.5 -172.5l-137 -27q-12 70 -44 104t-91 34q-110 0 -135 -112h130v-52h-137q-1 -8 -1 -26q0 -24 1 -35h137v-52h-129
q26 -109 133 -109q62 0 93 34t46 106l136 -23q-14 -113 -84.5 -175t-188.5 -62z" />
    <glyph glyph-name="uni2116" unicode="&#x2116;" horiz-adv-x="1094" 
d="M675 172h367v-119h-367v119zM858 320q79 0 79 95q0 94 -78 94q-80 0 -80 -94q0 -95 79 -95zM859 219q-92 0 -144.5 52t-52.5 144q0 91 52.5 143t144.5 52q90 0 143 -52t53 -143t-53 -143.5t-143 -52.5zM408 0l-122 237q-47 97 -97 235l-16 -2q12 -178 12 -289v-181h-134
v600h204l105 -201q54 -105 102 -249l16 2q-12 149 -12 263v185h133v-600h-191z" />
    <glyph glyph-name="trademark" unicode="&#x2122;" horiz-adv-x="918" 
d="M19 510v90h321v-90h-107v-255h-107v255h-107zM470 380v-125h-88v345h171l33 -94q34 -101 42 -128h12q21 67 44 128l34 94h163v-345h-106v125q0 12 3 132h-15q-27 -75 -52 -140l-44 -111h-91l-41 109q-31 82 -50 141h-16q1 -41 1 -131z" />
    <glyph glyph-name="uni2190" unicode="&#x2190;" horiz-adv-x="771" 
d="M34 266v43l305 288l87 -105q-104 -80 -217 -152l1 -4q139 15 325 15h190v-127h-190q-185 0 -325 15l-1 -3q113 -72 217 -153l-87 -105z" />
    <glyph glyph-name="arrowup" unicode="&#x2191;" horiz-adv-x="719" 
d="M337 657h42l289 -305l-105 -87q-80 102 -153 217l-3 -1q15 -141 15 -325v-190h-128v190q0 175 16 325l-4 1q-70 -110 -153 -217l-104 87z" />
    <glyph glyph-name="uni2192" unicode="&#x2192;" horiz-adv-x="771" 
d="M737 312v-43l-305 -288l-87 105q111 85 217 152l-1 4q-140 -15 -325 -15h-190v127h190q186 0 325 -15l1 3q-114 74 -217 153l87 105z" />
    <glyph glyph-name="arrowdown" unicode="&#x2193;" horiz-adv-x="719" 
d="M381 -51h-43l-288 305l105 87q80 -104 152 -217l4 2q-15 138 -15 325v189h127v-189q0 -187 -15 -325l4 -2q67 108 152 217l105 -87z" />
    <glyph glyph-name="minus" unicode="&#x2212;" horiz-adv-x="489" 
d="M457 249h-426v121h426v-121z" />
    <glyph glyph-name="uni25A0" unicode="&#x25a0;" 
d="M36 -119q2 138 2 414t-2 414q138 -3 414 -3t414 3q-2 -138 -2 -414t2 -414q-207 3 -414 3t-414 -3z" />
    <glyph glyph-name="uni25B2" unicode="&#x25b2;" 
d="M75 0v4l375 617h4l372 -617v-4h-751z" />
    <glyph glyph-name="uni25B3" unicode="&#x25b3;" 
d="M75 0v4l375 617h4l372 -617v-4h-751zM452 117q58 0 174 -10l3 8q-99 146 -172 309h-9q-76 -166 -173 -308l4 -9q118 10 173 10z" />
    <glyph glyph-name="uni25B6" unicode="&#x25b6;" 
d="M180 679h4l617 -375v-4l-617 -372h-4v751z" />
    <glyph glyph-name="uni25B7" unicode="&#x25b7;" 
d="M180 679h4l617 -375v-4l-617 -372h-4v751zM297 302q0 -58 -10 -174l8 -3q146 99 309 172v9q-166 76 -308 173l-9 -4q10 -118 10 -173z" />
    <glyph glyph-name="uni25BC" unicode="&#x25bc;" 
d="M825 600v-4l-375 -617h-4l-372 617v4h751z" />
    <glyph glyph-name="uni25BD" unicode="&#x25bd;" 
d="M624 484l-4 9q-118 -10 -173 -10q-58 0 -174 10l-3 -8q99 -146 172 -309h9q76 166 173 308zM73 600h751v-4l-375 -617h-4l-372 617v4z" />
    <glyph glyph-name="uni25C0" unicode="&#x25c0;" 
d="M720 679h-4l-617 -375v-4l617 -372h4v751z" />
    <glyph glyph-name="uni25C1" unicode="&#x25c1;" 
d="M716 679h4v-751h-4l-617 372v4zM603 302q0 55 10 173l-9 4q-142 -97 -308 -173v-9q163 -73 309 -172l8 3q-10 116 -10 174z" />
    <glyph glyph-name="uni25C6" unicode="&#x25c6;" 
d="M450 -193q-239 258 -483 483q255 237 483 483q228 -246 483 -483q-244 -225 -483 -483z" />
    <glyph glyph-name="uni25CF" unicode="&#x25cf;" 
d="M-3 294q0 210 122 331.5t332 121.5q209 0 330.5 -121.5t121.5 -331.5t-121.5 -331.5t-330.5 -121.5q-210 0 -332 121.5t-122 331.5z" />
    <glyph glyph-name="uni2605" unicode="&#x2605;" 
d="M707 -78l-257 149l-255 -149l-3 2l61 289l-220 197l1 4l295 31l119 270h4l119 -270l295 -31l1 -4l-220 -197l61 -289z" />
    <glyph glyph-name="uni2610" unicode="&#x2610;" 
d="M727 0h-553v553h553v-553zM451 100q79 0 182 -5q-5 102 -5 182q0 81 5 181q-124 -4 -182 -4q-60 0 -182 4q4 -122 4 -181q0 -60 -4 -182q102 5 182 5z" />
    <glyph glyph-name="uni2611" unicode="&#x2611;" 
d="M311 316l74 73q46 -51 85 -113q90 159 263 399l96 -72q-219 -265 -333 -461h-52q-52 90 -133 174zM174 0v553h404v-3l-62 -95q-21 -1 -65 -1q-59 0 -183 4q5 -100 5 -181q0 -80 -5 -182q155 5 183 5t183 -5q-6 114 -6 170l96 126h3v-391h-553z" />
    <glyph glyph-name="uni2612" unicode="&#x2612;" 
d="M727 0h-553v553h553v-553zM539 133q-40 41 -88 99q-65 -75 -87 -99l-60 58q42 39 99 87q-68 57 -99 86l60 59q22 -24 87 -99q48 58 88 99l58 -59q-31 -29 -99 -86q57 -48 99 -87zM451 100q79 0 182 -5q-5 102 -5 182q0 81 5 181q-124 -4 -182 -4q-60 0 -182 4
q4 -122 4 -181q0 -60 -4 -182q102 5 182 5z" />
    <glyph glyph-name="uni2661" unicode="&#x2661;" 
d="M324 226q82 -51 130 -111q50 60 131 111q141 89 141 192q0 54 -27 84.5t-81 30.5q-59 0 -96.5 -46t-52.5 -124h-29q-34 170 -150 170q-107 0 -107 -115q0 -104 141 -192zM449 -54q-30 52 -75.5 94.5t-119.5 96.5q-99 71 -151.5 140.5t-52.5 154.5q0 100 52.5 155.5
t144.5 55.5q80 0 127.5 -38t71.5 -119h8q24 81 71.5 119t128.5 38q90 0 143 -56t53 -155q0 -85 -52 -154.5t-151 -140.5q-75 -54 -120 -96t-74 -95h-4z" />
    <glyph glyph-name="uni2726" unicode="&#x2726;" 
d="M825 301v-12q-135 -41 -231 -138.5t-139 -230.5h-11q-43 133 -139 230.5t-231 138.5v12q135 41 231 138.5t139 230.5h11q43 -133 139 -230.5t231 -138.5z" />
    <glyph glyph-name="uni2727" unicode="&#x2727;" 
d="M826 296v-4q-135 -41 -232.5 -140t-140.5 -232h-4q-43 133 -141 232.5t-233 140.5v4q135 41 232.5 140.5t140.5 232.5h4q43 -133 141 -233t233 -141zM643 291v8q-77 21 -122 65.5t-67 122.5h-7q-21 -78 -66 -122.5t-123 -65.5v-8q78 -22 123 -66.5t66 -121.5h7
q22 77 67 122t122 66z" />
    <glyph glyph-name="uni2728" unicode="&#x2728;" 
d="M613 207v-4q-110 -34 -189.5 -114.5t-113.5 -188.5h-5q-34 108 -114 189t-191 115v4q110 34 190 114.5t115 189.5h4q35 -109 114.5 -190t189.5 -115zM304 45h4q19 63 57.5 101.5t102.5 58.5v5q-64 20 -102.5 58t-57.5 102h-4q-19 -64 -57.5 -102t-102.5 -58v-5
q64 -20 102.5 -58.5t57.5 -101.5zM583 588v-5q-50 -16 -86 -52.5t-52 -87.5h-5q-15 51 -51.5 88t-87.5 53v4q51 15 86.5 52.5t52.5 88.5h4q16 -51 52.5 -88t86.5 -53zM519 585v3q-58 17 -74 75h-4q-16 -58 -74 -75v-3q58 -17 74 -74h4q16 57 74 74zM900 383
q-83 -25 -143 -85.5t-86 -143.5h-4q-26 82 -86.5 143t-144.5 87v4q83 25 143 86t87 144h4q26 -82 86.5 -143.5t143.5 -87.5v-4zM794 384v5q-96 27 -124 123h-4q-27 -95 -123 -123v-5q96 -28 123 -123h4q28 96 124 123z" />
    <glyph glyph-name="uni2764" unicode="&#x2764;" 
d="M449 -54q-30 52 -75.5 94.5t-119.5 96.5q-99 71 -151.5 140.5t-52.5 154.5q0 100 52.5 155.5t144.5 55.5q80 0 127.5 -38t71.5 -119h8q24 81 71.5 119t128.5 38q90 0 143 -56t53 -155q0 -85 -52 -154.5t-151 -140.5q-75 -54 -120 -96t-74 -95h-4z" />
    <glyph glyph-name="uni2780" unicode="&#x2780;" horiz-adv-x="865" 
d="M432 -1q147 0 223 83.5t76 223.5q0 138 -76.5 221t-222.5 83t-222.5 -83t-76.5 -221q0 -139 76.5 -223t222.5 -84zM432 710q192 0 298.5 -111t106.5 -293q0 -183 -106.5 -295t-298.5 -112t-298 112t-106 295q0 182 106.5 293t297.5 111zM589 92h-308v93h112v237
q-37 -20 -93 -39l-36 87l175 52h63v-337h87v-93z" />
    <glyph glyph-name="uni2781" unicode="&#x2781;" horiz-adv-x="865" 
d="M432 -1q147 0 223 83.5t76 223.5q0 138 -76.5 221t-222.5 83t-222.5 -83t-76.5 -221q0 -139 76.5 -223t222.5 -84zM432 710q192 0 298.5 -111t106.5 -293q0 -183 -106.5 -295t-298.5 -112t-298 112t-106 295q0 182 106.5 293t297.5 111zM441 445q-77 0 -90 -88l-108 13
q22 165 199 165q182 0 182 -145q0 -112 -187 -146q-61 -13 -83.5 -25.5t-26.5 -37.5q70 8 136 8h161v-93h-394q-2 36 -2 55q0 72 35.5 108t117.5 55q81 20 105.5 36t24.5 44q0 51 -70 51z" />
    <glyph glyph-name="uni2782" unicode="&#x2782;" horiz-adv-x="865" 
d="M432 -1q147 0 223 83.5t76 223.5q0 138 -76.5 221t-222.5 83t-222.5 -83t-76.5 -221q0 -139 76.5 -223t222.5 -84zM432 710q192 0 298.5 -111t106.5 -293q0 -183 -106.5 -295t-298.5 -112t-298 112t-106 295q0 182 106.5 293t297.5 111zM432 85q-92 0 -142 32.5
t-60 104.5l112 13q8 -33 27 -49t64 -16q77 0 77 51q0 25 -15.5 36.5t-55.5 11.5h-77v74h77q61 0 61 47q0 27 -16 39.5t-52 12.5q-41 0 -58 -15.5t-23 -49.5l-107 8q21 144 187 144q92 0 133.5 -29t41.5 -87q0 -82 -108 -101v-8q70 -6 98 -28.5t28 -68.5q0 -57 -46.5 -89.5
t-145.5 -32.5z" />
    <glyph glyph-name="uni2783" unicode="&#x2783;" horiz-adv-x="865" 
d="M432 -1q147 0 223 83.5t76 223.5q0 138 -76.5 221t-222.5 83t-222.5 -83t-76.5 -221q0 -139 76.5 -223t222.5 -84zM432 710q192 0 298.5 -111t106.5 -293q0 -183 -106.5 -295t-298.5 -112t-298 112t-106 295q0 182 106.5 293t297.5 111zM616 188h-56v-94h-110v94h-250v75
l218 261h142v-251h56v-85zM449 273h1v168l-7 2l-142 -173l4 -5q69 8 144 8z" />
    <glyph glyph-name="uni2784" unicode="&#x2784;" horiz-adv-x="865" 
d="M432 -1q147 0 223 83.5t76 223.5q0 138 -76.5 221t-222.5 83t-222.5 -83t-76.5 -221q0 -139 76.5 -223t222.5 -84zM432 710q192 0 298.5 -111t106.5 -293q0 -183 -106.5 -295t-298.5 -112t-298 112t-106 295q0 182 106.5 293t297.5 111zM434 170q79 0 79 56q0 55 -78 55
q-54 0 -91 -22l-88 31v232h344v-100q-127 0 -245 10v-103q49 28 118 28q75 0 113.5 -36t38.5 -96q0 -140 -192 -140q-86 0 -134.5 27.5t-67.5 86.5l107 27q26 -56 96 -56z" />
    <glyph glyph-name="uni2785" unicode="&#x2785;" horiz-adv-x="865" 
d="M436 291q-88 0 -88 -57q0 -26 21.5 -42t64.5 -16q80 0 80 60q0 55 -78 55zM432 -1q147 0 223 83.5t76 223.5q0 138 -76.5 221t-222.5 83t-222.5 -83t-76.5 -221q0 -139 76.5 -223t222.5 -84zM432 710q192 0 298.5 -111t106.5 -293q0 -183 -106.5 -295t-298.5 -112
t-298 112t-106 295q0 182 106.5 293t297.5 111zM626 234q0 -71 -49 -109t-145 -38q-97 0 -150 50.5t-53 170.5q0 100 51.5 163t155.5 63q91 0 130.5 -33.5t48.5 -104.5l-109 -12q-7 31 -22 46t-50 15q-53 0 -75 -38.5t-22 -126.5v-1l10 -1q30 76 135 76q144 0 144 -120z" />
    <glyph glyph-name="uni2786" unicode="&#x2786;" horiz-adv-x="865" 
d="M432 -1q147 0 223 83.5t76 223.5q0 138 -76.5 221t-222.5 83t-222.5 -83t-76.5 -221q0 -139 76.5 -223t222.5 -84zM432 710q192 0 298.5 -111t106.5 -293q0 -183 -106.5 -295t-298.5 -112t-298 112t-106 295q0 182 106.5 293t297.5 111zM241 424v98h379v-98
q-136 -133 -145 -332h-129q10 204 183 339q-77 -7 -146 -7h-142z" />
    <glyph glyph-name="uni2787" unicode="&#x2787;" horiz-adv-x="865" 
d="M431 273q-83 0 -83 -51q0 -50 83 -50q84 0 84 50q0 25 -18.5 38t-65.5 13zM431 444q-71 0 -71 -49q0 -50 71 -52q72 2 72 52q0 49 -72 49zM432 -1q147 0 223 83.5t76 223.5q0 138 -76.5 221t-222.5 83t-222.5 -83t-76.5 -221q0 -139 76.5 -223t222.5 -84zM432 710
q192 0 298.5 -111t106.5 -293q0 -183 -106.5 -295t-298.5 -112t-298 112t-106 295q0 182 106.5 293t297.5 111zM431 85q-197 0 -197 123q0 41 29 65t91 34v8q-51 11 -76.5 34.5t-25.5 65.5q0 117 179 117q181 0 181 -117q0 -42 -25.5 -65.5t-76.5 -34.5v-8q119 -19 119 -99
q0 -123 -198 -123z" />
    <glyph glyph-name="uni2788" unicode="&#x2788;" horiz-adv-x="865" 
d="M428 318q43 0 64.5 17.5t21.5 45.5q0 27 -21 44t-63 17q-80 0 -80 -64q0 -27 20 -43.5t58 -16.5zM432 -1q147 0 223 83.5t76 223.5q0 138 -76.5 221t-222.5 83t-222.5 -83t-76.5 -221q0 -139 76.5 -223t222.5 -84zM432 710q192 0 298.5 -111t106.5 -293
q0 -183 -106.5 -295t-298.5 -112t-298 112t-106 295q0 182 106.5 293t297.5 111zM428 84q-92 0 -136 32.5t-54 93.5l109 18q12 -54 83 -54q53 0 74 36.5t21 121.5l-9 1q-32 -78 -131 -78q-147 0 -147 126q0 71 49 110.5t142 39.5q99 0 152 -50t53 -170q0 -101 -51 -164
t-155 -63z" />
    <glyph glyph-name="uni2789" unicode="&#x2789;" horiz-adv-x="861" 
d="M397 104h-179v78h58v244q-19 -12 -46 -23l-26 71l108 33h45v-325h40v-78zM534 437q-49 0 -49 -131q0 -134 49 -134q50 0 50 134q0 131 -50 131zM534 517q64 0 99 -53.5t35 -157.5q0 -103 -35 -157.5t-99 -54.5t-99 54.5t-35 157.5t36 157t98 54zM432 -1q147 0 223 83.5
t76 223.5q0 138 -76.5 221t-222.5 83t-222.5 -83t-76.5 -221q0 -139 76.5 -223t222.5 -84zM432 710q192 0 298.5 -111t106.5 -293q0 -183 -106.5 -295t-298.5 -112t-298 112t-106 295q0 182 106.5 293t297.5 111z" />
    <glyph glyph-name="uni278A" unicode="&#x278a;" horiz-adv-x="865" 
d="M281 185v-93h308v93h-87v337h-64l-174 -52l35 -87q57 19 93 37v-235h-111zM432 710q192 0 298.5 -111t106.5 -293q0 -183 -106.5 -295t-298.5 -112t-298 112t-106 295q0 182 106.5 293t297.5 111z" />
    <glyph glyph-name="uni278B" unicode="&#x278b;" horiz-adv-x="865" 
d="M437 445q70 0 70 -51q0 -27 -24.5 -43t-105.5 -36q-82 -19 -117.5 -55.5t-35.5 -107.5q0 -20 2 -56h394v94h-161q-69 0 -136 -10q4 26 27 39t83 25q187 36 187 147q0 144 -182 144q-177 0 -200 -165l109 -12q11 87 90 87zM432 710q192 0 298.5 -111t106.5 -293
q0 -183 -106.5 -295t-298.5 -112t-298 112t-106 295q0 182 106.5 293t297.5 111z" />
    <glyph glyph-name="uni278C" unicode="&#x278c;" horiz-adv-x="865" 
d="M432 85q99 0 145.5 32.5t46.5 89.5q0 46 -27.5 68t-97.5 28v10q108 19 108 100q0 58 -42 87t-133 29q-168 0 -187 -143l106 -9q7 34 23.5 49.5t57.5 15.5q68 0 68 -51q0 -47 -61 -47h-77v-75h77q41 0 56.5 -11.5t15.5 -36.5q0 -51 -78 -51q-45 0 -64 16t-27 49l-112 -12
q10 -72 60 -105t142 -33zM432 710q192 0 298.5 -111t106.5 -293q0 -183 -106.5 -295t-298.5 -112t-298 112t-106 295q0 182 106.5 293t297.5 111z" />
    <glyph glyph-name="uni278D" unicode="&#x278d;" horiz-adv-x="865" 
d="M616 188v85h-56v251h-141l-219 -261v-75h250v-94h110v94h56zM422 273q-44 0 -116 -9l-5 8l142 171l7 -2v-168h-28zM432 710q192 0 298.5 -111t106.5 -293q0 -183 -106.5 -295t-298.5 -112t-298 112t-106 295q0 182 106.5 293t297.5 111z" />
    <glyph glyph-name="uni278E" unicode="&#x278e;" horiz-adv-x="865" 
d="M434 170q-71 0 -95 56l-107 -27q18 -58 66.5 -86t134.5 -28q192 0 192 141q0 60 -38 95.5t-114 35.5q-70 0 -117 -28v103q126 -10 244 -10v100h-344v-231l88 -32q36 23 91 23q78 0 78 -56t-79 -56zM432 710q192 0 298.5 -111t106.5 -293q0 -183 -106.5 -295t-298.5 -112
t-298 112t-106 295q0 182 106.5 293t297.5 111z" />
    <glyph glyph-name="uni278F" unicode="&#x278f;" horiz-adv-x="865" 
d="M626 233q0 121 -144 121q-104 0 -133 -78l-12 3q1 91 22.5 128t74.5 37q35 0 50 -14.5t22 -45.5l110 11q-10 72 -49 105.5t-131 33.5q-104 0 -155.5 -63t-51.5 -163q0 -120 53 -170.5t150 -50.5q96 0 145 37.5t49 108.5zM437 291q77 0 77 -56q0 -59 -79 -59q-44 0 -65 16
t-21 42q0 57 88 57zM432 710q192 0 298.5 -111t106.5 -293q0 -183 -106.5 -295t-298.5 -112t-298 112t-106 295q0 182 106.5 293t297.5 111z" />
    <glyph glyph-name="uni2790" unicode="&#x2790;" horiz-adv-x="865" 
d="M241 423h143q74 0 146 9q-173 -137 -183 -341h128q11 201 146 332v98h-380v-98zM432 710q192 0 298.5 -111t106.5 -293q0 -183 -106.5 -295t-298.5 -112t-298 112t-106 295q0 182 106.5 293t297.5 111z" />
    <glyph glyph-name="uni2791" unicode="&#x2791;" horiz-adv-x="865" 
d="M432 85q197 0 197 123q0 81 -119 98v10q102 20 102 99q0 117 -180 117t-180 -117q0 -79 102 -99v-10q-63 -9 -91 -33t-28 -65q0 -123 197 -123zM432 444q71 0 71 -49q0 -50 -71 -52q-72 2 -72 52q0 26 17 37.5t55 11.5zM432 273q83 0 83 -51q0 -50 -83 -50q-84 0 -84 50
q0 51 84 51zM432 710q192 0 298.5 -111t106.5 -293q0 -183 -106.5 -295t-298.5 -112t-298 112t-106 295q0 182 106.5 293t297.5 111z" />
    <glyph glyph-name="uni2792" unicode="&#x2792;" horiz-adv-x="865" 
d="M634 311q0 120 -53 170t-152 50q-93 0 -142 -39.5t-49 -110.5q0 -65 40.5 -95.5t107.5 -30.5q97 0 128 79l12 -2q-1 -86 -22 -122t-74 -36q-71 0 -83 54l-109 -18q11 -61 55 -93t135 -32q104 0 155 62.5t51 163.5zM429 318q-39 0 -59 16.5t-20 44.5q0 63 81 63
q41 0 62 -16.5t21 -43.5q0 -29 -21.5 -46.5t-63.5 -17.5zM432 710q192 0 298.5 -111t106.5 -293q0 -183 -106.5 -295t-298.5 -112t-298 112t-106 295q0 182 106.5 293t297.5 111z" />
    <glyph glyph-name="uni2793" unicode="&#x2793;" horiz-adv-x="861" 
d="M535 517q-63 0 -98.5 -54t-35.5 -157t35 -157.5t99 -54.5t99 54.5t35 157.5t-35.5 157t-98.5 54zM211 182v-78h179v78h-39v325h-46l-108 -33l26 -71q36 15 46 21v-242h-58zM535 437q50 0 50 -131q0 -134 -51 -134q-49 0 -49 134q0 131 50 131zM432 710q192 0 298.5 -111
t106.5 -293q0 -183 -106.5 -295t-298.5 -112t-298 112t-106 295q0 182 106.5 293t297.5 111z" />
    <glyph glyph-name="uni279A" unicode="&#x279a;" 
d="M631 364v-364h-526v526h376v-2l-92 -97q-64 0 -184 4q4 -102 4 -152q0 -79 -5 -179q153 5 180 5q68 0 153 -5q-5 88 -5 157l96 107h3zM773 677l22 -22v-375h-107q5 114 25 249l-6 3q-142 -159 -243 -260l-110 -109l-75 74l110 110q110 110 262 242l-3 6
q-121 -18 -242 -24v106h367z" />
    <glyph glyph-name="uni2B1B" unicode="&#x2b1b;" 
d="M727 0h-553v553h553v-553z" />
    <glyph glyph-name="uni2B1C" unicode="&#x2b1c;" 
d="M727 0h-553v553h553v-553zM451 100q79 0 182 -5q-5 102 -5 182q0 81 5 181q-124 -4 -182 -4q-60 0 -182 4q4 -122 4 -181q0 -60 -4 -182q102 5 182 5z" />
    <glyph glyph-name="commaaccent" unicode="&#xf6c3;" horiz-adv-x="181" 
d="M54 -51h104l-59 -154h-84v9z" />
    <glyph glyph-name="uniF8FF" unicode="&#xf8ff;" horiz-adv-x="1287" 
d="M948 8q-7 -15 -60 -15l-24 1q4 103 6 248t4 199q-25 -78 -54 -189t-46 -178t-23 -72q-7 -6 -21 -6q-6 0 -24 2.5t-32 3.5q2 62 2 205q-31 1 -93 1q1 -25 1 -80q0 -119 -10 -125q-6 -5 -26 -5q-11 0 -29 1.5t-22 1.5h-3q7 113 7 206q-15 0 -41.5 -0.5t-37.5 -0.5v-45
q0 -28 0.5 -71.5t0.5 -54.5q0 -18 -1 -20q-5 -13 -19 -16.5t-60 -4.5q-1 29 -1 79q0 54 2 130q-56 -2 -64 -2q-76 -128 -105 -199q-7 2 -22 2l-42 -5q-3 25 -16 50q-4 9 -48 76.5t-46 77.5q-2 8 -2 12q0 18 13 44q-5 10 -5 24q0 19 8 48q6 18 23.5 59t45.5 104t45 104
q33 0 70 10q44 -114 88 -326q5 0 14 -0.5t22 -1t23 -0.5v12q0 20 -0.5 78t-0.5 89q0 117 8 128q8 14 72 15q-3 -60 -3 -115q0 -34 1 -93.5t1 -83.5v-31q12 0 38 -0.5t39 -0.5q0 90 -1.5 175t-1.5 90q0 39 10 47q7 6 38 6h31q0 -13 -0.5 -38t-0.5 -37q0 -82 5 -242q67 2 95 4
q0 26 -0.5 73t-0.5 68q0 157 8 168q10 14 42 14q7 0 19.5 -1t17.5 -1q-8 -56 -8 -264v-80q98 328 122 340q8 4 30 4l46 -3q-3 -72 -3 -171q0 -64 1.5 -181t1.5 -154q0 -80 -4 -87zM1152 463q-12 -34 -33.5 -88t-34.5 -89t-13 -47v-2q1 -14 34 -69.5t39 -68.5l58 146
q-11 62 -29.5 134.5t-20.5 83.5zM70 254q0 -8 12 -29.5t31.5 -56.5t31.5 -63q12 30 28.5 66.5t25.5 57t9 29.5v2q-2 29 -47 210q-91 -197 -91 -216zM1119 608q12 -6 28 -6q19 0 30 12q68 -216 110 -373q-91 -238 -120 -244q-3 -1 -9 -1q-23 0 -66 18q-1 17 -11.5 43
t-21.5 44.5t-28.5 46t-21.5 33.5q-11 19 -11 30q0 6 2 10.5t6 9t5 6.5q3 5 3 10q0 13 -17 18q91 224 122 343z" />
    <glyph glyph-name="fi" unicode="&#xfb01;" horiz-adv-x="580" 
d="M220 492v-18h112v-108h-112v-366h-136v366h-69v108h69v22q0 75 42.5 119t127.5 44q46 0 82 -9l-5 -94q-28 5 -50 5q-61 0 -61 -69zM528 0h-136v474h136v-474zM531 541h-142v98h142v-98z" />
    <glyph glyph-name="fl" unicode="&#xfb02;" horiz-adv-x="577" 
d="M220 492v-18h112v-108h-112v-366h-136v366h-69v108h69v22q0 75 42.5 119t127.5 44q46 0 82 -9l-5 -94q-28 5 -50 5q-61 0 -61 -69zM527 642v-642h-136v642h136z" />
    <glyph glyph-name="exclamdown.case" horiz-adv-x="249" 
d="M56 378h137v-378h-137v378zM198 457h-147v143h147v-143z" />
    <glyph glyph-name="questiondown.case" horiz-adv-x="494" 
d="M143 325q44 18 44 58v11h130q1 -7 1 -20q0 -45 -19.5 -71t-68.5 -50q-41 -20 -57 -37.5t-16 -46.5q0 -65 80 -65q53 0 78 30.5t33 90.5l133 -19q-26 -218 -246 -218q-221 0 -221 170q0 70 33 106.5t96 60.5zM327 457h-148v143h148v-143z" />
    <glyph glyph-name="periodcentered.case" horiz-adv-x="217" 
d="M34 377h148v-143h-148v143z" />
    <glyph glyph-name="bullet.case" horiz-adv-x="290" 
d="M37 410h217v-208h-217v208z" />
    <glyph glyph-name="guillemotleft.case" horiz-adv-x="641" 
d="M361 82h-132l-214 219v14l214 219h132v-13l-204 -213l204 -213v-13zM627 82h-132l-214 219v14l214 219h132v-13l-204 -213l204 -213v-13z" />
    <glyph glyph-name="guillemotright.case" horiz-adv-x="641" 
d="M412 81h-131v13l203 211v3l-203 212v13h131l214 -220v-13zM146 81h-132v13l204 212v1l-204 213v13h132l214 -220v-13z" />
    <glyph glyph-name="guilsinglleft.case" horiz-adv-x="376" 
d="M361 83h-132l-214 219v14l214 219h132v-13l-204 -213l204 -213v-13z" />
    <glyph glyph-name="guilsinglright.case" horiz-adv-x="375" 
d="M146 80h-132v13l204 213l-204 213v13h132l214 -219v-14z" />
    <glyph glyph-name="hyphen.case" horiz-adv-x="350" 
d="M18 368h314v-125h-314v125z" />
    <glyph glyph-name="endash.case" horiz-adv-x="476" 
d="M18 368h440v-124h-440v124z" />
    <glyph glyph-name="emdash.case" horiz-adv-x="860" 
d="M18 368h824v-124h-824v124z" />
    <glyph glyph-name="parenleft.case" horiz-adv-x="346" 
d="M43 302q0 253 185 427l90 -62q-74 -87 -104.5 -174t-30.5 -191t30.5 -191t104.5 -174l-90 -62q-185 177 -185 427z" />
    <glyph glyph-name="parenright.case" horiz-adv-x="344" 
d="M306 302q0 -251 -185 -427l-90 62q74 87 104.5 174t30.5 191q0 103 -30.5 190.5t-104.5 174.5l90 62q185 -177 185 -427z" />
    <glyph glyph-name="bracketleft.case" horiz-adv-x="316" 
d="M50 -92v785h248v-112h-111v-554h111v-119h-248z" />
    <glyph glyph-name="bracketright.case" horiz-adv-x="316" 
d="M17 -88v113h112v553h-112v119h249v-785h-249z" />
    <glyph glyph-name="braceleft.case" horiz-adv-x="374" 
d="M351 -109q-35 -3 -90 -3q-174 0 -174 112q0 28 13 54.5t28.5 44.5t28.5 41.5t13 45.5q0 28 -18.5 41t-61.5 13h-71v116h70q85 0 85 64q0 26 -21.5 55t-43 60.5t-21.5 64.5q0 112 174 112q55 0 91 -3l-1 -113q-19 1 -51 1q-66 0 -66 -41q0 -18 29.5 -63t29.5 -80
q0 -89 -138 -107v-14q75 -6 106.5 -29.5t31.5 -70.5q0 -36 -30 -82.5t-30 -66.5q0 -40 66 -40q13 0 51 2v-114z" />
    <glyph glyph-name="braceright.case" horiz-adv-x="374" 
d="M23 716q35 3 90 3q174 0 174 -112q0 -43 -41.5 -98.5t-41.5 -87.5q0 -28 18.5 -40.5t61.5 -12.5h71v-116h-70q-85 0 -85 -64q0 -31 43 -85.5t43 -95.5q0 -112 -174 -112q-55 0 -91 3l1 113q19 -1 50 -1q66 0 66 41q0 18 -29 63t-29 80q0 91 138 107v15q-76 6 -107 29.5
t-31 69.5q0 36 30 82.5t30 66.5q0 40 -66 40q-13 0 -51 -2v114z" />
    <glyph glyph-name="zero.osf" horiz-adv-x="575" 
d="M288 423q-62 0 -90.5 -43t-28.5 -115q0 -161 118 -161q120 0 120 161q0 72 -29 115t-90 43zM288 545q125 0 193.5 -71.5t68.5 -208.5q0 -136 -67.5 -207.5t-194.5 -71.5t-194.5 71.5t-67.5 207.5q0 137 69 208.5t193 71.5z" />
    <glyph glyph-name="one.osf" horiz-adv-x="452" 
d="M429 0h-393v113h144v310q-59 -38 -123 -62l-40 104l206 67h94v-419h112v-113z" />
    <glyph glyph-name="two.osf" horiz-adv-x="568" 
d="M297 430q-104 0 -115 -120l-131 16q9 102 69 159t178 57q228 0 228 -170q0 -73 -51 -109.5t-171 -65.5q-96 -23 -126 -39t-33 -51q107 14 230 14h150v-121h-490q-2 48 -2 73q0 81 44 120t151 70q98 28 127 48t29 54q0 65 -87 65z" />
    <glyph glyph-name="three.osf" horiz-adv-x="569" 
d="M292 -74q-123 0 -188.5 46.5t-76.5 147.5l139 16q8 -50 35.5 -74t91.5 -24q105 0 105 76q0 39 -21.5 56t-77.5 17h-101v98h101q84 0 84 71q0 40 -22.5 58.5t-70.5 18.5q-55 0 -79 -23t-31 -72l-133 12q26 196 242 196q118 0 172.5 -40t54.5 -121q0 -113 -138 -141v-12
q91 -9 126.5 -40t35.5 -95q0 -80 -60 -125.5t-188 -45.5z" />
    <glyph glyph-name="four.osf" horiz-adv-x="582" 
d="M573 66h-75v-134h-137v134h-332v98l293 368h176v-355h75v-111zM339 177h22v245l-9 3l-196 -252l5 -7q88 11 178 11z" />
    <glyph glyph-name="five.osf" horiz-adv-x="573" 
d="M291 33q59 0 84 21.5t25 64.5q0 84 -108 84q-68 0 -121 -35l-111 43v321h447v-130q-177 0 -322 13v-151q62 36 153 36q100 0 151 -49t51 -133q0 -196 -250 -196q-112 0 -176.5 39.5t-86.5 122.5l134 35q32 -86 130 -86z" />
    <glyph glyph-name="six.osf" horiz-adv-x="580" 
d="M302 278q-63 0 -92.5 -24t-29.5 -62q0 -39 29.5 -63.5t88.5 -24.5q111 0 111 92q0 82 -107 82zM548 193q0 -98 -64 -151.5t-189 -53.5q-127 0 -196 71.5t-69 237.5q0 140 66.5 227.5t202.5 87.5q120 0 171.5 -46.5t64.5 -146.5l-137 -15q-9 47 -30.5 69t-69.5 22
q-72 0 -102 -54.5t-30 -178.5v-13l12 -2q37 115 180 115q86 0 138 -41t52 -128z" />
    <glyph glyph-name="seven.osf" horiz-adv-x="532" 
d="M17 404v128h497v-128q-182 -189 -196 -472h-160q15 288 242 483q-101 -11 -182 -11h-201z" />
    <glyph glyph-name="eight.osf" horiz-adv-x="576" 
d="M288 -12q-258 0 -258 171q0 114 157 138v12q-133 29 -133 140q2 163 234 163q234 0 234 -163q0 -58 -33 -91t-99 -49v-12q156 -24 156 -138q0 -171 -258 -171zM288 253q-116 0 -116 -76q0 -75 116 -75t116 75q0 36 -25.5 56t-90.5 20zM288 496q-99 0 -99 -74
q0 -76 99 -76t99 76q0 74 -99 74z" />
    <glyph glyph-name="nine.osf" horiz-adv-x="574" 
d="M278 248q59 0 89 26t30 66q0 41 -29.5 66.5t-86.5 25.5q-111 0 -111 -96q0 -41 27.5 -64.5t80.5 -23.5zM278 -76q-118 0 -176 44t-73 130l135 25q19 -82 117 -82q72 0 101.5 53.5t29.5 175.5v8l-12 2q-41 -116 -175 -116q-89 0 -142 42.5t-53 132.5q0 99 63.5 154
t185.5 55q129 0 198.5 -71t69.5 -238q0 -140 -66.5 -227.5t-202.5 -87.5z" />
    <glyph glyph-name="zero.tf" horiz-adv-x="599" 
d="M299 489q-126 0 -126 -187q0 -92 31.5 -142.5t93.5 -50.5q127 0 127 193q0 187 -126 187zM299 614q126 0 198 -80.5t72 -231.5q0 -152 -71 -234t-199 -82t-198.5 81.5t-70.5 234.5q0 150 72.5 231t196.5 81z" />
    <glyph glyph-name="one.tf" horiz-adv-x="610" 
d="M557 0h-494v121h205v348q-68 -39 -168 -76l-46 119l271 88h79v-479h153v-121z" />
    <glyph glyph-name="two.tf" horiz-adv-x="610" 
d="M318 495q-108 0 -122 -131l-135 16q25 233 258 233q237 0 237 -199q0 -156 -243 -204q-82 -19 -113 -39t-35 -60q101 11 173 11h220v-122h-514q-2 24 -2 73q0 100 46.5 150.5t154.5 78.5q106 27 139 51t33 66q0 76 -97 76z" />
    <glyph glyph-name="three.tf" horiz-adv-x="610" 
d="M313 -10q-123 0 -188.5 46.5t-76.5 147.5l139 16q8 -50 35.5 -74t91.5 -24q105 0 105 76q0 39 -21.5 56t-77.5 17h-101v98h101q84 0 84 71q0 40 -22.5 58.5t-70.5 18.5q-55 0 -79 -23t-31 -72l-133 12q26 196 242 196q118 0 172.5 -40t54.5 -121q0 -113 -138 -141v-12
q91 -9 126.5 -40t35.5 -95q0 -80 -60 -125.5t-188 -45.5z" />
    <glyph glyph-name="four.tf" horiz-adv-x="600" 
d="M573 134h-75v-134h-137v134h-332v98l293 368h176v-355h75v-111zM339 245h22v245l-9 3l-196 -252l5 -7q88 11 178 11z" />
    <glyph glyph-name="five.tf" horiz-adv-x="610" 
d="M308 101q59 0 84 21.5t25 64.5q0 84 -108 84q-69 0 -121 -35l-111 43v321h447v-130q-177 0 -322 13v-151q62 36 153 36q100 0 151 -49t51 -133q0 -196 -250 -196q-112 0 -176.5 39.5t-86.5 122.5l134 35q32 -86 130 -86z" />
    <glyph glyph-name="six.tf" horiz-adv-x="610" 
d="M319 278q-63 0 -92.5 -24t-29.5 -62q0 -39 29.5 -63.5t88.5 -24.5q111 0 111 92q0 82 -107 82zM565 193q0 -98 -64 -151.5t-189 -53.5q-127 0 -196 71.5t-69 237.5q0 140 66.5 227.5t202.5 87.5q120 0 171.5 -46.5t64.5 -146.5l-137 -15q-9 47 -30.5 69t-69.5 22
q-72 0 -102 -54.5t-30 -178.5v-13l12 -2q37 115 180 115q86 0 138 -41t52 -128z" />
    <glyph glyph-name="seven.tf" horiz-adv-x="610" 
d="M62 472v128h497v-128q-182 -189 -196 -472h-160q15 288 242 483q-101 -11 -182 -11h-201z" />
    <glyph glyph-name="eight.tf" horiz-adv-x="610" 
d="M305 -12q-258 0 -258 171q0 114 157 138v12q-133 29 -133 140q2 163 234 163q234 0 234 -163q0 -58 -33 -91t-99 -49v-12q156 -24 156 -138q0 -171 -258 -171zM305 253q-116 0 -116 -76q0 -75 116 -75t116 75q0 36 -25.5 56t-90.5 20zM305 496q-99 0 -99 -74
q0 -76 99 -76t99 76q0 74 -99 74z" />
    <glyph glyph-name="nine.tf" horiz-adv-x="610" 
d="M294 312q59 0 89 26t30 66q0 41 -29.5 66.5t-86.5 25.5q-111 0 -111 -96q0 -41 27.5 -64.5t80.5 -23.5zM294 -12q-118 0 -176 44t-73 130l135 25q19 -82 117 -82q72 0 101.5 53.5t29.5 175.5v8l-12 2q-41 -116 -175 -116q-89 0 -142 42.5t-53 132.5q0 99 63.5 154
t185.5 55q129 0 198.5 -71t69.5 -238q0 -140 -66.5 -227.5t-202.5 -87.5z" />
    <glyph glyph-name="zero.tosf" horiz-adv-x="608" 
d="M304 423q-62 0 -90.5 -43t-28.5 -115q0 -161 118 -161q120 0 120 161q0 72 -29 115t-90 43zM304 545q125 0 193.5 -71.5t68.5 -208.5q0 -136 -67.5 -207.5t-194.5 -71.5t-194.5 71.5t-67.5 207.5q0 137 69 208.5t193 71.5z" />
    <glyph glyph-name="one.tosf" horiz-adv-x="610" 
d="M558 0h-494v113h210v315q-80 -48 -185 -75l-30 108l257 71h95v-419h147v-113z" />
    <glyph glyph-name="two.tosf" horiz-adv-x="610" 
d="M318 430q-104 0 -115 -120l-131 16q9 102 69 159t178 57q228 0 228 -170q0 -73 -51 -109.5t-171 -65.5q-96 -23 -126 -39t-33 -51q107 14 230 14h150v-121h-490q-2 48 -2 73q0 81 44 120t151 70q98 28 127 48t29 54q0 65 -87 65z" />
    <glyph glyph-name="three.tosf" horiz-adv-x="610" 
d="M313 -74q-123 0 -188.5 46.5t-76.5 147.5l139 16q8 -50 35.5 -74t91.5 -24q105 0 105 76q0 39 -21.5 56t-77.5 17h-101v98h101q84 0 84 71q0 40 -22.5 58.5t-70.5 18.5q-55 0 -79 -23t-31 -72l-133 12q26 196 242 196q118 0 172.5 -40t54.5 -121q0 -113 -138 -141v-12
q91 -9 126.5 -40t35.5 -95q0 -80 -60 -125.5t-188 -45.5z" />
    <glyph glyph-name="four.tosf" horiz-adv-x="610" 
d="M573 66h-75v-134h-137v134h-332v98l293 368h176v-355h75v-111zM339 177h22v245l-9 3l-196 -252l5 -7q88 11 178 11z" />
    <glyph glyph-name="five.tosf" horiz-adv-x="610" 
d="M308 33q59 0 84 21.5t25 64.5q0 84 -108 84q-69 0 -121 -35l-111 43v321h447v-130q-177 0 -322 13v-151q62 36 153 36q100 0 151 -49t51 -133q0 -196 -250 -196q-112 0 -176.5 39.5t-86.5 122.5l134 35q32 -86 130 -86z" />
    <glyph glyph-name="six.tosf" horiz-adv-x="610" 
d="M319 278q-63 0 -92.5 -24t-29.5 -62q0 -39 29.5 -63.5t88.5 -24.5q111 0 111 92q0 82 -107 82zM565 193q0 -98 -64 -151.5t-189 -53.5q-127 0 -196 71.5t-69 237.5q0 140 66.5 227.5t202.5 87.5q120 0 171.5 -46.5t64.5 -146.5l-137 -15q-9 47 -30.5 69t-69.5 22
q-72 0 -102 -54.5t-30 -178.5v-13l12 -2q37 115 180 115q86 0 138 -41t52 -128z" />
    <glyph glyph-name="seven.tosf" horiz-adv-x="610" 
d="M62 404v128h497v-128q-182 -189 -196 -472h-160q15 288 242 483q-101 -11 -182 -11h-201z" />
    <glyph glyph-name="eight.tosf" horiz-adv-x="610" 
d="M305 -12q-258 0 -258 171q0 114 157 138v12q-133 29 -133 140q2 163 234 163q234 0 234 -163q0 -58 -33 -91t-99 -49v-12q156 -24 156 -138q0 -171 -258 -171zM305 253q-116 0 -116 -76q0 -75 116 -75t116 75q0 36 -25.5 56t-90.5 20zM305 496q-99 0 -99 -74
q0 -76 99 -76t99 76q0 74 -99 74z" />
    <glyph glyph-name="nine.tosf" horiz-adv-x="610" 
d="M294 248q59 0 89 26t30 66q0 41 -29.5 66.5t-86.5 25.5q-111 0 -111 -96q0 -41 27.5 -64.5t80.5 -23.5zM294 -76q-118 0 -176 44t-73 130l135 25q19 -82 117 -82q72 0 101.5 53.5t29.5 175.5v8l-12 2q-41 -116 -175 -116q-89 0 -142 42.5t-53 132.5q0 99 63.5 154
t185.5 55q129 0 198.5 -71t69.5 -238q0 -140 -66.5 -227.5t-202.5 -87.5z" />
    <glyph glyph-name="dollar.osf" horiz-adv-x="519" 
d="M220 644h92l-6 -112q84 -8 123.5 -45t52.5 -101l-135 -27q-8 41 -28.5 58.5t-62.5 17.5q-75 0 -75 -48q0 -24 22 -39.5t89 -29.5q118 -24 160.5 -63.5t42.5 -104.5q0 -144 -190 -157l7 -117h-92l6 117q-102 8 -149 49.5t-57 110.5l136 28q19 -88 115 -88q79 0 79 50
q0 26 -23.5 40.5t-92.5 28.5q-109 24 -152.5 61.5t-43.5 105.5t47.5 108t140.5 46z" />
    <glyph glyph-name="sterling.osf" horiz-adv-x="555" 
d="M525 0h-502v118h92q8 33 8 66q0 12 -3 26h-97v68h75q-21 55 -21 99q0 75 55 120.5t160 45.5q199 0 221 -168l-126 -26q-9 41 -29.5 60t-63.5 20q-42 0 -62.5 -19.5t-20.5 -51.5q0 -26 15 -80h225v-68h-211q-1 -48 -31 -92h316v-118z" />
    <glyph glyph-name="Euro.osf" horiz-adv-x="602" 
d="M326 -14q-102 0 -166 53t-82 150h-62v52h56q-1 8 -1 26t1 27h-56v52h63q19 95 85 147t166 52q105 0 167 -53.5t75 -154.5l-125 -24q-12 62 -40 92t-82 30q-93 0 -118 -89h132v-52h-140q-1 -9 -1 -27t1 -26h140v-52h-133q23 -95 119 -95q56 0 83.5 30t40.5 94l125 -21
q-13 -101 -77 -156t-171 -55z" />
    <glyph glyph-name="yen.osf" horiz-adv-x="596" 
d="M559 123h-189v-123h-144v123h-189v69h176l-41 66h-135v72h90l-114 185v11h162l114 -249h19l117 249h159v-11l-114 -185h89v-72h-134l-41 -66h175v-69z" />
    <glyph glyph-name="a.sc" horiz-adv-x="560" 
d="M418 0l-35 112h-211l-36 -112h-144l192 532h193l191 -532h-150zM225 277l-21 -66h148l-21 66q-23 71 -41 138h-23q-23 -81 -42 -138z" />
    <glyph glyph-name="b.sc" horiz-adv-x="542" 
d="M308 216h-121v-116h125q72 0 72 58q0 30 -16.5 44t-59.5 14zM294 429h-107v-121h103q39 0 58 14.5t19 48.5q0 30 -17 44t-56 14zM47 0v532h246q108 0 158 -33t50 -103q0 -100 -118 -125v-8q77 -7 108.5 -33.5t31.5 -83.5q0 -146 -206 -146h-270z" />
    <glyph glyph-name="c.sc" horiz-adv-x="579" 
d="M297 -13q-129 0 -201 74.5t-72 206.5q0 131 74 204t203 73q109 0 173.5 -53.5t77.5 -154.5l-133 -25q-12 58 -40.5 86.5t-82.5 28.5q-67 0 -100 -44t-33 -115q0 -164 133 -164q56 0 84 28t41 88l133 -22q-13 -101 -79.5 -156t-177.5 -55z" />
    <glyph glyph-name="d.sc" horiz-adv-x="593" 
d="M271 420h-84v-309h88q83 0 119 39.5t36 122.5q0 81 -36.5 114t-122.5 33zM47 0v532h241q282 0 282 -259q0 -127 -75.5 -200t-208.5 -73h-239z" />
    <glyph glyph-name="e.sc" horiz-adv-x="511" 
d="M47 0v532h425v-117h-285v-98h263v-97h-263v-103h285v-117h-425z" />
    <glyph glyph-name="f.sc" horiz-adv-x="481" 
d="M434 168h-244v-168h-141v532h407v-124h-266v-127h244v-113z" />
    <glyph glyph-name="g.sc" horiz-adv-x="596" 
d="M241 -10q-97 0 -157.5 69.5t-60.5 199.5q0 136 69.5 211t204.5 75q112 0 171.5 -46.5t76.5 -140.5l-131 -26q-14 49 -40.5 72t-79.5 23q-69 0 -99.5 -42.5t-30.5 -125.5q0 -78 32 -118t103 -40q120 0 124 89h-128v95h259v-285h-128v116h-11q-42 -126 -174 -126z" />
    <glyph glyph-name="h.sc" horiz-adv-x="597" 
d="M549 0h-140v204h-222v-204h-140v532h140v-207h222v207h140v-532z" />
    <glyph glyph-name="i.sc" horiz-adv-x="235" 
d="M187 0h-140v532h140v-532z" />
    <glyph glyph-name="j.sc" horiz-adv-x="297" 
d="M109 164v368h140v-367q0 -172 -164 -172q-32 0 -76 6l6 116q28 -5 45 -5q49 0 49 54z" />
    <glyph glyph-name="k.sc" horiz-adv-x="543" 
d="M383 0l-155 196h-41v-196h-140v532h140v-227h38l158 227h158v-10l-213 -261l218 -251v-10h-163z" />
    <glyph glyph-name="l.sc" horiz-adv-x="443" 
d="M47 532h140v-418h236v-114h-376v532z" />
    <glyph glyph-name="m.sc" horiz-adv-x="766" 
d="M177 216v-216h-130v532h227l65 -199q19 -57 44 -162h18q24 109 43 168l64 193h211v-532h-140v216q0 46 5 206h-16q-36 -139 -67 -230l-59 -164h-130l-58 167q-34 107 -64 227h-14q1 -65 1 -206z" />
    <glyph glyph-name="n.sc" horiz-adv-x="608" 
d="M374 0l-106 201q-42 83 -87 208l-15 -2q11 -147 11 -253v-154h-130v532h199l92 -170q47 -89 88 -217l16 2q-11 141 -11 227v158h129v-532h-186z" />
    <glyph glyph-name="o.sc" horiz-adv-x="611" 
d="M306 -13q-134 0 -208 75t-74 206q0 129 75.5 203t206.5 74t206 -74t75 -203q0 -131 -73.5 -206t-207.5 -75zM305 104q143 0 143 164q0 159 -142 159q-73 0 -108 -42t-35 -117q0 -164 142 -164z" />
    <glyph glyph-name="p.sc" horiz-adv-x="516" 
d="M269 418h-82v-158h84q49 0 71 19t22 60t-21.5 60t-73.5 19zM286 149h-99v-149h-140v532h234q222 0 222 -193q0 -81 -58 -135.5t-159 -54.5z" />
    <glyph glyph-name="q.sc" horiz-adv-x="612" 
d="M305 104q143 0 143 164q0 159 -142 159q-73 0 -108 -42t-35 -117q0 -164 142 -164zM306 -13q-134 0 -208 75t-74 206q0 129 75.5 203t206.5 74t206 -74t75 -203q0 -152 -97 -226l81 -113v-10h-149l-46 74q-33 -6 -70 -6z" />
    <glyph glyph-name="r.sc" horiz-adv-x="555" 
d="M283 419h-96v-140h99q47 0 66.5 16.5t19.5 52.5q0 37 -20.5 54t-68.5 17zM382 0l-114 179h-81v-179h-140v532h247q217 0 217 -179q0 -119 -106 -157l138 -186v-10h-161z" />
    <glyph glyph-name="s.sc" horiz-adv-x="535" 
d="M273 -13q-231 1 -251 169l133 27q19 -88 124 -88q88 0 88 49q0 27 -26.5 42t-101.5 27q-111 17 -156.5 58.5t-45.5 111.5q0 78 57.5 120t171.5 42q203 0 230 -156l-139 -26q-10 41 -31 58.5t-67 17.5q-83 0 -83 -49q0 -24 23.5 -39t98.5 -27q121 -21 165.5 -63t44.5 -108
q0 -166 -235 -166z" />
    <glyph glyph-name="t.sc" horiz-adv-x="481" 
d="M14 408v124h454v-124h-157v-408h-140v408h-157z" />
    <glyph glyph-name="u.sc" horiz-adv-x="590" 
d="M297 107q59 0 82.5 28t23.5 83v314h140v-325q0 -106 -63.5 -162.5t-182.5 -56.5q-121 0 -185.5 56.5t-64.5 162.5v325h140v-314q0 -55 24.5 -83t85.5 -28z" />
    <glyph glyph-name="v.sc" horiz-adv-x="557" 
d="M373 0h-189l-192 532h150l87 -277q22 -70 41 -138h21q22 79 42 138l87 277h145z" />
    <glyph glyph-name="w.sc" horiz-adv-x="798" 
d="M357 224l-36 -224h-194l-134 532h151l44 -224q22 -113 33 -193h20q14 103 31 193l46 224h177l45 -224q13 -71 29 -193h19q7 47 33 193l41 224h142l-130 -532h-203l-37 224q-19 113 -29 198h-17q-11 -77 -31 -198z" />
    <glyph glyph-name="x.sc" horiz-adv-x="529" 
d="M371 0l-104 205h-16l-101 -205h-146v10l162 266l-160 246v10h154l105 -199h16l95 199h147v-10l-159 -264l162 -248v-10h-155z" />
    <glyph glyph-name="y.sc" horiz-adv-x="514" 
d="M327 0h-140v167l-199 355v10h154l107 -249h17l109 249h151v-10l-199 -355v-167z" />
    <glyph glyph-name="z.sc" horiz-adv-x="543" 
d="M507 124v-124h-475v114l293 295l-6 11q-110 -12 -158 -12h-121v124h464v-113l-297 -298l5 -10q102 13 154 13h141z" />
    <glyph glyph-name="aacute.sc" horiz-adv-x="560" 
d="M418 0l-35 112h-211l-36 -112h-144l192 532h193l191 -532h-150zM215 565l-34 66l236 136l49 -94zM225 277l-21 -66h148l-21 66q-23 71 -41 138h-23q-23 -81 -42 -138z" />
    <glyph glyph-name="abreve.sc" horiz-adv-x="560" 
d="M418 0l-35 112h-211l-36 -112h-144l192 532h193l191 -532h-150zM280 668q74 0 83 82h62q0 -87 -36 -127t-109 -40q-72 0 -108.5 40t-36.5 127h62q10 -82 83 -82zM225 277l-21 -66h148l-21 66q-23 71 -41 138h-23q-23 -81 -42 -138z" />
    <glyph glyph-name="acircumflex.sc" horiz-adv-x="560" 
d="M418 0l-35 112h-211l-36 -112h-144l192 532h193l191 -532h-150zM393 566l-113 92l-113 -92l-45 48l137 146h43l136 -146zM225 277l-21 -66h148l-21 66q-23 71 -41 138h-23q-23 -81 -42 -138z" />
    <glyph glyph-name="adieresis.sc" horiz-adv-x="560" 
d="M418 0l-35 112h-211l-36 -112h-144l192 532h193l191 -532h-150zM134 723h121v-117h-121v117zM305 723h121v-117h-121v117zM225 277l-21 -66h148l-21 66q-23 71 -41 138h-23q-23 -81 -42 -138z" />
    <glyph glyph-name="agrave.sc" horiz-adv-x="560" 
d="M418 0l-35 112h-211l-36 -112h-144l192 532h193l191 -532h-150zM362 565l-252 108l50 94l235 -136zM225 277l-21 -66h148l-21 66q-23 71 -41 138h-23q-23 -81 -42 -138z" />
    <glyph glyph-name="amacron.sc" horiz-adv-x="560" 
d="M418 0l-35 112h-211l-36 -112h-144l192 532h193l191 -532h-150zM144 698h271v-92h-271v92zM225 277l-21 -66h148l-21 66q-23 71 -41 138h-23q-23 -81 -42 -138z" />
    <glyph glyph-name="aogonek.sc" horiz-adv-x="560" 
d="M568 -162q-37 -5 -62 -5q-117 0 -117 76q0 65 99 91h-70l-35 112h-211l-36 -112h-144l192 532h193l191 -532h-1q-55 -10 -78.5 -22t-23.5 -32q0 -28 50 -28q24 0 52 7zM225 277l-21 -66h148l-21 66q-23 71 -41 138h-23q-23 -81 -42 -138z" />
    <glyph glyph-name="aring.sc" horiz-adv-x="560" 
d="M418 0l-35 112h-211l-36 -112h-144l192 532h193l191 -532h-150zM230 691q0 -25 13.5 -39t36.5 -14t37 14t14 39t-13.5 38.5t-37.5 13.5q-23 0 -36.5 -13.5t-13.5 -38.5zM397 691q0 -52 -31.5 -83t-85.5 -31t-85 31t-31 83t31 83t85 31t85.5 -31t31.5 -83zM225 277
l-21 -66h148l-21 66q-23 71 -41 138h-23q-23 -81 -42 -138z" />
    <glyph glyph-name="aringacute.sc" horiz-adv-x="560" 
d="M189 693l-21 65l241 90l30 -95zM231 578q0 -21 13 -33.5t35 -12.5t35 12.5t13 34.5q0 21 -13 33.5t-35 12.5t-35 -12.5t-13 -34.5zM393 579q0 -30 -13 -56l188 -523h-150l-35 112h-211l-36 -112h-144l188 520q-15 24 -15 58q0 50 30.5 79.5t83.5 29.5q52 0 83 -29.5
t31 -78.5zM225 277l-21 -66h148l-21 66q-23 71 -41 138h-23q-23 -81 -42 -138z" />
    <glyph glyph-name="atilde.sc" horiz-adv-x="560" 
d="M418 0l-35 112h-211l-36 -112h-144l192 532h193l191 -532h-150zM209 757q26 0 47 -13t32.5 -29t25 -29t26.5 -13q20 0 27.5 18.5t6.5 60.5h59q3 -24 3 -46q0 -61 -23 -93t-63 -32q-23 0 -43 13t-31.5 29t-26.5 29t-30 13q-19 0 -26.5 -17.5t-7.5 -60.5h-58q-3 25 -3 45
q0 62 22.5 93.5t62.5 31.5zM225 277l-21 -66h148l-21 66q-23 71 -41 138h-23q-23 -81 -42 -138z" />
    <glyph glyph-name="ae.sc" horiz-adv-x="801" 
d="M254 276l-29 -71h112v218h-30q-23 -75 -53 -147zM337 0v103h-154l-43 -103h-146l240 532h528v-117h-285v-98h263v-97h-263v-103h285v-117h-425z" />
    <glyph glyph-name="aeacute.sc" horiz-adv-x="801" 
d="M385 561l-34 66l236 136l49 -94zM337 0v103h-154l-43 -103h-146l240 532h528v-117h-285v-98h263v-97h-263v-103h285v-117h-425zM254 276l-29 -71h112v218h-30q-23 -75 -53 -147z" />
    <glyph glyph-name="cacute.sc" horiz-adv-x="579" 
d="M297 -13q-129 0 -201 74.5t-72 206.5q0 131 74 204t203 73q109 0 173.5 -53.5t77.5 -154.5l-133 -25q-12 58 -40.5 86.5t-82.5 28.5q-67 0 -100 -44t-33 -115q0 -164 133 -164q56 0 84 28t41 88l133 -22q-13 -101 -79.5 -156t-177.5 -55zM224 577l-34 66l236 136l49 -94z
" />
    <glyph glyph-name="ccaron.sc" horiz-adv-x="579" 
d="M297 -13q-129 0 -201 74.5t-72 206.5q0 131 74 204t203 73q109 0 173.5 -53.5t77.5 -154.5l-133 -25q-12 58 -40.5 86.5t-82.5 28.5q-67 0 -100 -44t-33 -115q0 -164 133 -164q56 0 84 28t41 88l133 -22q-13 -101 -79.5 -156t-177.5 -55zM310 589h-43l-136 145l45 48
l113 -92l113 92l45 -48z" />
    <glyph glyph-name="ccedilla.sc" horiz-adv-x="579" 
d="M297 -13h-6l-12 -33q16 6 35 6q72 0 72 -60q0 -26 -22 -47t-71 -21q-62 0 -102 28l27 42q36 -22 75 -22q35 0 35 25q0 23 -35 23q-17 0 -37 -6l-35 14l20 55q-104 16 -160.5 88t-56.5 189q0 131 74 204t203 73q109 0 173.5 -53.5t77.5 -154.5l-133 -25q-12 58 -40.5 86.5
t-82.5 28.5q-67 0 -100 -44t-33 -115q0 -164 133 -164q56 0 84 28t41 88l133 -22q-13 -101 -79.5 -156t-177.5 -55z" />
    <glyph glyph-name="ccircumflex.sc" horiz-adv-x="579" 
d="M297 -13q-129 0 -201 74.5t-72 206.5q0 131 74 204t203 73q109 0 173.5 -53.5t77.5 -154.5l-133 -25q-12 58 -40.5 86.5t-82.5 28.5q-67 0 -100 -44t-33 -115q0 -164 133 -164q56 0 84 28t41 88l133 -22q-13 -101 -79.5 -156t-177.5 -55zM402 578l-113 92l-113 -92
l-45 48l137 146h43l136 -146z" />
    <glyph glyph-name="cdotaccent.sc" horiz-adv-x="579" 
d="M297 -13q-129 0 -201 74.5t-72 206.5q0 131 74 204t203 73q109 0 173.5 -53.5t77.5 -154.5l-133 -25q-12 58 -40.5 86.5t-82.5 28.5q-67 0 -100 -44t-33 -115q0 -164 133 -164q56 0 84 28t41 88l133 -22q-13 -101 -79.5 -156t-177.5 -55zM224 743h131v-125h-131v125z" />
    <glyph glyph-name="dcaron.sc" horiz-adv-x="593" 
d="M271 420h-84v-309h88q83 0 119 39.5t36 122.5q0 81 -36.5 114t-122.5 33zM47 0v532h241q282 0 282 -259q0 -127 -75.5 -200t-208.5 -73h-239zM321 577h-43l-136 145l45 48l113 -92l113 92l45 -48z" />
    <glyph glyph-name="dcroat.sc" horiz-adv-x="618" 
d="M325 224h-115v-113h88q83 0 119 39.5t36 122.5q0 81 -36.5 114t-122.5 33h-84v-114h115v-82zM70 0v224h-54v82h54v226h241q282 0 282 -259q0 -127 -75.5 -200t-208.5 -73h-239z" />
    <glyph glyph-name="eacute.sc" horiz-adv-x="511" 
d="M47 0v532h425v-117h-285v-98h263v-97h-263v-103h285v-117h-425zM195 565l-34 66l236 136l49 -94z" />
    <glyph glyph-name="ebreve.sc" horiz-adv-x="511" 
d="M47 0v532h425v-117h-285v-98h263v-97h-263v-103h285v-117h-425zM260 668q74 0 83 82h62q0 -87 -36 -127t-109 -40q-72 0 -108.5 40t-36.5 127h62q10 -82 83 -82z" />
    <glyph glyph-name="ecaron.sc" horiz-adv-x="511" 
d="M47 0v532h425v-117h-285v-98h263v-97h-263v-103h285v-117h-425zM281 577h-43l-136 145l45 48l113 -92l113 92l45 -48z" />
    <glyph glyph-name="ecircumflex.sc" horiz-adv-x="511" 
d="M47 0v532h425v-117h-285v-98h263v-97h-263v-103h285v-117h-425zM373 566l-113 92l-113 -92l-45 48l137 146h43l136 -146z" />
    <glyph glyph-name="edieresis.sc" horiz-adv-x="511" 
d="M47 0v532h425v-117h-285v-98h263v-97h-263v-103h285v-117h-425zM114 723h121v-117h-121v117zM285 723h121v-117h-121v117z" />
    <glyph glyph-name="edotaccent.sc" horiz-adv-x="511" 
d="M47 0v532h425v-117h-285v-98h263v-97h-263v-103h285v-117h-425zM195 731h131v-125h-131v125z" />
    <glyph glyph-name="egrave.sc" horiz-adv-x="511" 
d="M47 0v532h425v-117h-285v-98h263v-97h-263v-103h285v-117h-425zM342 565l-252 108l50 94l235 -136z" />
    <glyph glyph-name="emacron.sc" horiz-adv-x="511" 
d="M47 0v532h425v-117h-285v-98h263v-97h-263v-103h285v-117h-425zM124 698h271v-92h-271v92z" />
    <glyph glyph-name="eng.sc" horiz-adv-x="608" 
d="M47 0v532h199l98 -169q45 -83 90 -192l10 1q-13 132 -13 202v158h129v-528q0 -166 -172 -166q-39 0 -81 7l7 115q31 -7 59 -7q52 0 56 44l-143 198q-46 64 -105 218l-15 -2q11 -147 11 -257v-154h-130z" />
    <glyph glyph-name="eogonek.sc" horiz-adv-x="511" 
d="M472 -162q-37 -5 -62 -5q-117 0 -117 76q0 65 99 91h-345v532h425v-117h-285v-98h263v-97h-263v-103h285v-117h-1q-55 -10 -78.5 -22t-23.5 -32q0 -28 50 -28q24 0 52 7z" />
    <glyph glyph-name="eth.sc" horiz-adv-x="618" 
d="M325 224h-115v-113h88q83 0 119 39.5t36 122.5q0 81 -36.5 114t-122.5 33h-84v-114h115v-82zM70 0v224h-54v82h54v226h241q282 0 282 -259q0 -127 -75.5 -200t-208.5 -73h-239z" />
    <glyph glyph-name="fi.sc" horiz-adv-x="722" 
d="M434 168h-244v-168h-141v532h407v-124h-266v-127h244v-113zM674 0h-140v532h140v-532z" />
    <glyph glyph-name="fl.sc" horiz-adv-x="930" 
d="M434 168h-244v-168h-141v532h407v-124h-266v-127h244v-113zM534 532h140v-418h236v-114h-376v532z" />
    <glyph glyph-name="gbreve.sc" horiz-adv-x="596" 
d="M241 -10q-97 0 -157.5 69.5t-60.5 199.5q0 136 69.5 211t204.5 75q112 0 171.5 -46.5t76.5 -140.5l-131 -26q-14 49 -40.5 72t-79.5 23q-69 0 -99.5 -42.5t-30.5 -125.5q0 -78 32 -118t103 -40q120 0 124 89h-128v95h259v-285h-128v116h-11q-42 -126 -174 -126zM290 680
q74 0 83 82h62q0 -87 -36 -127t-109 -40q-72 0 -108.5 40t-36.5 127h62q10 -82 83 -82z" />
    <glyph glyph-name="gcircumflex.sc" horiz-adv-x="596" 
d="M241 -10q-97 0 -157.5 69.5t-60.5 199.5q0 136 69.5 211t204.5 75q112 0 171.5 -46.5t76.5 -140.5l-131 -26q-14 49 -40.5 72t-79.5 23q-69 0 -99.5 -42.5t-30.5 -125.5q0 -78 32 -118t103 -40q120 0 124 89h-128v95h259v-285h-128v116h-11q-42 -126 -174 -126zM403 578
l-113 92l-113 -92l-45 48l137 146h43l136 -146z" />
    <glyph glyph-name="gcommaaccent.sc" horiz-adv-x="596" 
d="M241 -10q-97 0 -157.5 69.5t-60.5 199.5q0 136 69.5 211t204.5 75q112 0 171.5 -46.5t76.5 -140.5l-131 -26q-14 49 -40.5 72t-79.5 23q-69 0 -99.5 -42.5t-30.5 -125.5q0 -78 32 -118t103 -40q120 0 124 89h-128v95h259v-285h-128v116h-11q-42 -126 -174 -126zM255 -51
h104l-59 -154h-84v9z" />
    <glyph glyph-name="gdotaccent.sc" horiz-adv-x="596" 
d="M241 -10q-97 0 -157.5 69.5t-60.5 199.5q0 136 69.5 211t204.5 75q112 0 171.5 -46.5t76.5 -140.5l-131 -26q-14 49 -40.5 72t-79.5 23q-69 0 -99.5 -42.5t-30.5 -125.5q0 -78 32 -118t103 -40q120 0 124 89h-128v95h259v-285h-128v116h-11q-42 -126 -174 -126zM225 743
h131v-125h-131v125z" />
    <glyph glyph-name="hbar.sc" horiz-adv-x="630" 
d="M424 284v74h-222v-74h222zM564 0h-140v170h-222v-170h-140v358h-51v78h51v96h140v-96h222v96h140v-96h55v-78h-55v-358z" />
    <glyph glyph-name="hcircumflex.sc" horiz-adv-x="597" 
d="M549 0h-140v204h-222v-204h-140v532h140v-207h222v207h140v-532zM411 566l-113 92l-113 -92l-45 48l137 146h43l136 -146z" />
    <glyph glyph-name="iacute.sc" horiz-adv-x="235" 
d="M187 0h-140v532h140v-532zM52 565l-34 66l236 136l49 -94z" />
    <glyph glyph-name="ibreve.sc" horiz-adv-x="235" 
d="M187 0h-140v532h140v-532zM117 668q74 0 83 82h62q0 -87 -36 -127t-109 -40q-72 0 -108.5 40t-36.5 127h62q10 -82 83 -82z" />
    <glyph glyph-name="icircumflex.sc" horiz-adv-x="235" 
d="M187 0h-140v532h140v-532zM230 566l-113 92l-113 -92l-45 48l137 146h43l136 -146z" />
    <glyph glyph-name="idieresis.sc" horiz-adv-x="235" 
d="M187 0h-140v532h140v-532zM-28 723h121v-117h-121v117zM143 723h121v-117h-121v117z" />
    <glyph glyph-name="igrave.sc" horiz-adv-x="235" 
d="M187 0h-140v532h140v-532zM199 565l-252 108l50 94l235 -136z" />
    <glyph glyph-name="ij.sc" horiz-adv-x="532" 
d="M187 0h-140v532h140v-532zM344 164v368h140v-367q0 -172 -164 -172q-32 0 -76 6l6 116q28 -5 45 -5q49 0 49 54z" />
    <glyph glyph-name="imacron.sc" horiz-adv-x="235" 
d="M187 0h-140v532h140v-532zM-18 698h271v-92h-271v92z" />
    <glyph glyph-name="iogonek.sc" horiz-adv-x="235" 
d="M187 0q-55 -10 -78.5 -22t-23.5 -32q0 -28 50 -28q24 0 52 7l1 -87q-37 -5 -62 -5q-117 0 -117 76q0 65 99 91h-61v532h140v-532z" />
    <glyph glyph-name="itilde.sc" horiz-adv-x="235" 
d="M187 0h-140v532h140v-532zM47 757q26 0 47 -13t32.5 -29t25 -29t26.5 -13q20 0 27.5 18.5t6.5 60.5h59q3 -24 3 -46q0 -61 -23 -93t-63 -32q-23 0 -43 13t-31.5 29t-26.5 29t-30 13q-19 0 -26.5 -17.5t-7.5 -60.5h-58q-3 25 -3 45q0 62 22.5 93.5t62.5 31.5z" />
    <glyph glyph-name="jcircumflex.sc" horiz-adv-x="297" 
d="M109 164v368h140v-367q0 -172 -164 -172q-32 0 -76 6l6 116q28 -5 45 -5q49 0 49 54zM291 566l-113 92l-113 -92l-45 48l137 146h43l136 -146z" />
    <glyph glyph-name="kcommaaccent.sc" horiz-adv-x="543" 
d="M383 0l-155 196h-41v-196h-140v532h140v-227h38l158 227h158v-10l-213 -261l218 -251v-10h-163zM261 -51h104l-59 -154h-84v9z" />
    <glyph glyph-name="lacute.sc" horiz-adv-x="443" 
d="M102 565l-34 66l236 136l49 -94zM47 532h140v-418h236v-114h-376v532z" />
    <glyph glyph-name="lcaron.sc" horiz-adv-x="456" 
d="M323 532h102l-31 -252h-84zM47 532h140v-418h236v-114h-376v532z" />
    <glyph glyph-name="lcommaaccent.sc" horiz-adv-x="443" 
d="M47 532h140v-418h236v-114h-376v532zM200 -51h104l-59 -154h-84v9z" />
    <glyph glyph-name="ldot.sc" horiz-adv-x="446" 
d="M282 375h119v-113h-119v113zM47 532h140v-418h236v-114h-376v532z" />
    <glyph glyph-name="lslash.sc" horiz-adv-x="462" 
d="M63 532h140v-197l115 51v-85l-115 -50v-137h236v-114h-376v190l-52 -23v84l52 23v258z" />
    <glyph glyph-name="nacute.sc" horiz-adv-x="608" 
d="M374 0l-106 201q-42 83 -87 208l-15 -2q11 -147 11 -253v-154h-130v532h199l92 -170q47 -89 88 -217l16 2q-11 141 -11 227v158h129v-532h-186zM238 565l-34 66l236 136l49 -94z" />
    <glyph glyph-name="ncaron.sc" horiz-adv-x="608" 
d="M374 0l-106 201q-42 83 -87 208l-15 -2q11 -147 11 -253v-154h-130v532h199l92 -170q47 -89 88 -217l16 2q-11 141 -11 227v158h129v-532h-186zM325 577h-43l-136 145l45 48l113 -92l113 92l45 -48z" />
    <glyph glyph-name="ncommaaccent.sc" horiz-adv-x="608" 
d="M374 0l-106 201q-42 83 -87 208l-15 -2q11 -147 11 -253v-154h-130v532h199l92 -170q47 -89 88 -217l16 2q-11 141 -11 227v158h129v-532h-186zM268 -51h104l-59 -154h-84v9z" />
    <glyph glyph-name="ntilde.sc" horiz-adv-x="608" 
d="M374 0l-106 201q-42 83 -87 208l-15 -2q11 -147 11 -253v-154h-130v532h199l92 -170q47 -89 88 -217l16 2q-11 141 -11 227v158h129v-532h-186zM233 757q26 0 47 -13t32.5 -29t25 -29t26.5 -13q20 0 27.5 18.5t6.5 60.5h59q3 -24 3 -46q0 -61 -23 -93t-63 -32
q-23 0 -43 13t-31.5 29t-26.5 29t-30 13q-19 0 -26.5 -17.5t-7.5 -60.5h-58q-3 25 -3 45q0 62 22.5 93.5t62.5 31.5z" />
    <glyph glyph-name="oacute.sc" horiz-adv-x="611" 
d="M306 -13q-134 0 -208 75t-74 206q0 129 75.5 203t206.5 74t206 -74t75 -203q0 -131 -73.5 -206t-207.5 -75zM305 104q143 0 143 164q0 159 -142 159q-73 0 -108 -42t-35 -117q0 -164 142 -164zM240 577l-34 66l236 136l49 -94z" />
    <glyph glyph-name="obreve.sc" horiz-adv-x="611" 
d="M306 -13q-134 0 -208 75t-74 206q0 129 75.5 203t206.5 74t206 -74t75 -203q0 -131 -73.5 -206t-207.5 -75zM305 104q143 0 143 164q0 159 -142 159q-73 0 -108 -42t-35 -117q0 -164 142 -164zM305 680q74 0 83 82h62q0 -87 -36 -127t-109 -40q-72 0 -108.5 40t-36.5 127
h62q10 -82 83 -82z" />
    <glyph glyph-name="ocircumflex.sc" horiz-adv-x="611" 
d="M305 104q143 0 143 164q0 159 -142 159q-73 0 -108 -42t-35 -117q0 -164 142 -164zM306 -13q-134 0 -208 75t-74 206q0 129 75.5 203t206.5 74t206 -74t75 -203q0 -131 -73.5 -206t-207.5 -75zM418 578l-113 92l-113 -92l-45 48l137 146h43l136 -146z" />
    <glyph glyph-name="odieresis.sc" horiz-adv-x="611" 
d="M306 -13q-134 0 -208 75t-74 206q0 129 75.5 203t206.5 74t206 -74t75 -203q0 -131 -73.5 -206t-207.5 -75zM305 104q143 0 143 164q0 159 -142 159q-73 0 -108 -42t-35 -117q0 -164 142 -164zM160 735h121v-117h-121v117zM331 735h121v-117h-121v117z" />
    <glyph glyph-name="ograve.sc" horiz-adv-x="611" 
d="M306 -13q-134 0 -208 75t-74 206q0 129 75.5 203t206.5 74t206 -74t75 -203q0 -131 -73.5 -206t-207.5 -75zM305 104q143 0 143 164q0 159 -142 159q-73 0 -108 -42t-35 -117q0 -164 142 -164zM387 577l-252 108l50 94l235 -136z" />
    <glyph glyph-name="ohungarumlaut.sc" horiz-adv-x="611" 
d="M306 -13q-134 0 -208 75t-74 206q0 129 75.5 203t206.5 74t206 -74t75 -203q0 -131 -73.5 -206t-207.5 -75zM305 104q143 0 143 164q0 159 -142 159q-73 0 -108 -42t-35 -117q0 -164 142 -164zM239 582l-58 33l85 167l79 -45zM376 583l-55 39l101 159l74 -50z" />
    <glyph glyph-name="omacron.sc" horiz-adv-x="611" 
d="M306 -13q-134 0 -208 75t-74 206q0 129 75.5 203t206.5 74t206 -74t75 -203q0 -131 -73.5 -206t-207.5 -75zM305 104q143 0 143 164q0 159 -142 159q-73 0 -108 -42t-35 -117q0 -164 142 -164zM170 710h271v-92h-271v92z" />
    <glyph glyph-name="oslash.sc" horiz-adv-x="610" 
d="M153 268q0 -54 16 -92l225 235q-35 22 -89 22q-77 0 -114.5 -43.5t-37.5 -121.5zM305 -13q-101 0 -171 45l-28 -32h-102v6l76 75q-57 74 -57 187q0 129 76 203t206 74q103 0 173 -47l30 34h100v-6l-77 -76q56 -73 56 -182q0 -130 -74 -205.5t-208 -75.5zM304 96
q153 0 153 172q0 50 -15 86l-226 -236q36 -22 88 -22z" />
    <glyph glyph-name="oslashacute.sc" horiz-adv-x="611" 
d="M153 268q0 -54 16 -92l225 235q-35 22 -89 22q-77 0 -114.5 -43.5t-37.5 -121.5zM305 -13q-101 0 -171 45l-28 -32h-102v6l76 75q-57 74 -57 187q0 129 76 203t206 74q103 0 173 -47l30 34h100v-6l-77 -76q56 -73 56 -182q0 -130 -74 -205.5t-208 -75.5zM244 574l-34 66
l236 136l49 -94zM304 96q153 0 153 172q0 50 -15 86l-226 -236q36 -22 88 -22z" />
    <glyph glyph-name="otilde.sc" horiz-adv-x="611" 
d="M306 -13q-134 0 -208 75t-74 206q0 129 75.5 203t206.5 74t206 -74t75 -203q0 -131 -73.5 -206t-207.5 -75zM305 104q143 0 143 164q0 159 -142 159q-73 0 -108 -42t-35 -117q0 -164 142 -164zM235 769q26 0 47 -13t32.5 -29t25 -29t26.5 -13q20 0 27.5 18.5t6.5 60.5h59
q3 -24 3 -46q0 -61 -23 -93t-63 -32q-23 0 -43 13t-31.5 29t-26.5 29t-30 13q-19 0 -26.5 -17.5t-7.5 -60.5h-58q-3 25 -3 45q0 62 22.5 93.5t62.5 31.5z" />
    <glyph glyph-name="oe.sc" horiz-adv-x="860" 
d="M310 114h49v304h-49q-73 0 -110 -40t-37 -110q0 -154 147 -154zM310 0q-134 0 -210 72t-76 196q0 122 78 193t209 71h473v-117h-285v-98h263v-97h-263v-103h285v-117h-474z" />
    <glyph glyph-name="racute.sc" horiz-adv-x="555" 
d="M283 419h-96v-140h99q47 0 66.5 16.5t19.5 52.5q0 37 -20.5 54t-68.5 17zM382 0l-114 179h-81v-179h-140v532h247q217 0 217 -179q0 -119 -106 -157l138 -186v-10h-161zM227 565l-34 66l236 136l49 -94z" />
    <glyph glyph-name="rcaron.sc" horiz-adv-x="555" 
d="M283 419h-96v-140h99q47 0 66.5 16.5t19.5 52.5q0 37 -20.5 54t-68.5 17zM382 0l-114 179h-81v-179h-140v532h247q217 0 217 -179q0 -119 -106 -157l138 -186v-10h-161zM294 577h-43l-136 145l45 48l113 -92l113 92l45 -48z" />
    <glyph glyph-name="rcommaaccent.sc" horiz-adv-x="555" 
d="M257 -51h104l-59 -154h-84v9zM283 419h-96v-140h99q47 0 66.5 16.5t19.5 52.5q0 37 -20.5 54t-68.5 17zM382 0l-114 179h-81v-179h-140v532h247q217 0 217 -179q0 -119 -106 -157l138 -186v-10h-161z" />
    <glyph glyph-name="sacute.sc" horiz-adv-x="535" 
d="M273 -13q-231 1 -251 169l133 27q19 -88 124 -88q88 0 88 49q0 27 -26.5 42t-101.5 27q-111 17 -156.5 58.5t-45.5 111.5q0 78 57.5 120t171.5 42q203 0 230 -156l-139 -26q-10 41 -31 58.5t-67 17.5q-83 0 -83 -49q0 -24 23.5 -39t98.5 -27q121 -21 165.5 -63t44.5 -108
q0 -166 -235 -166zM200 577l-34 66l236 136l49 -94z" />
    <glyph glyph-name="scaron.sc" horiz-adv-x="535" 
d="M273 -13q-231 1 -251 169l133 27q19 -88 124 -88q88 0 88 49q0 27 -26.5 42t-101.5 27q-111 17 -156.5 58.5t-45.5 111.5q0 78 57.5 120t171.5 42q203 0 230 -156l-139 -26q-10 41 -31 58.5t-67 17.5q-83 0 -83 -49q0 -24 23.5 -39t98.5 -27q121 -21 165.5 -63t44.5 -108
q0 -166 -235 -166zM286 589h-43l-136 145l45 48l113 -92l113 92l45 -48z" />
    <glyph glyph-name="scedilla.sc" horiz-adv-x="535" 
d="M273 -13h-6l-12 -33q17 6 35 6q72 0 72 -60q0 -26 -22 -47t-71 -21q-62 0 -102 28l27 42q36 -22 75 -22q35 0 35 25q0 23 -35 23q-17 0 -37 -6l-35 14l19 54q-176 19 -194 166l133 27q19 -88 124 -88q88 0 88 49q0 27 -26.5 42t-101.5 27q-111 17 -156.5 58.5
t-45.5 111.5q0 78 57.5 120t171.5 42q203 0 230 -156l-139 -26q-10 41 -31 58.5t-67 17.5q-83 0 -83 -49q0 -24 23.5 -39t98.5 -27q121 -21 165.5 -63t44.5 -108q0 -166 -235 -166z" />
    <glyph glyph-name="scircumflex.sc" horiz-adv-x="535" 
d="M273 -13q-231 1 -251 169l133 27q19 -88 124 -88q88 0 88 49q0 27 -26.5 42t-101.5 27q-111 17 -156.5 58.5t-45.5 111.5q0 78 57.5 120t171.5 42q203 0 230 -156l-139 -26q-10 41 -31 58.5t-67 17.5q-83 0 -83 -49q0 -24 23.5 -39t98.5 -27q121 -21 165.5 -63t44.5 -108
q0 -166 -235 -166zM378 578l-113 92l-113 -92l-45 48l137 146h43l136 -146z" />
    <glyph glyph-name="scommaaccent.sc" horiz-adv-x="535" 
d="M273 -13q-231 1 -251 169l133 27q19 -88 124 -88q88 0 88 49q0 27 -26.5 42t-101.5 27q-111 17 -156.5 58.5t-45.5 111.5q0 78 57.5 120t171.5 42q203 0 230 -156l-139 -26q-10 41 -31 58.5t-67 17.5q-83 0 -83 -49q0 -24 23.5 -39t98.5 -27q121 -21 165.5 -63t44.5 -108
q0 -166 -235 -166zM230 -51h104l-59 -154h-84v9z" />
    <glyph glyph-name="tbar.sc" horiz-adv-x="483" 
d="M14 408v124h454v-124h-157v-146h118v-77h-118v-185h-140v185h-115v77h115v146h-157z" />
    <glyph glyph-name="tcaron.sc" horiz-adv-x="481" 
d="M468 408h-157v-408h-140v408h-157v124h454v-124zM262 577h-43l-136 145l45 48l113 -92l113 92l45 -48z" />
    <glyph glyph-name="tcommaaccent.sc" horiz-adv-x="481" 
d="M14 408v124h454v-124h-157v-408h-66l-17 -46q16 6 35 6q72 0 72 -60q0 -26 -22 -47t-71 -21q-62 0 -102 28l27 42q36 -22 75 -22q35 0 35 25q0 23 -35 23q-17 0 -37 -6l-35 14l23 64h-22v408h-157z" />
    <glyph glyph-name="uni021B.sc" horiz-adv-x="481" 
d="M14 408v124h454v-124h-157v-408h-140v408h-157zM206 -51h104l-59 -154h-84v9z" />
    <glyph glyph-name="thorn.sc" horiz-adv-x="532" 
d="M48 532h138v-70h107q222 0 222 -193q0 -89 -56.5 -141t-162.5 -52h-110v-76h-138v532zM282 348h-96v-158h97q94 0 94 79q0 40 -22.5 59.5t-72.5 19.5z" />
    <glyph glyph-name="uacute.sc" horiz-adv-x="590" 
d="M297 107q59 0 82.5 28t23.5 83v314h140v-325q0 -106 -63.5 -162.5t-182.5 -56.5q-121 0 -185.5 56.5t-64.5 162.5v325h140v-314q0 -55 24.5 -83t85.5 -28zM230 565l-34 66l236 136l49 -94z" />
    <glyph glyph-name="ubreve.sc" horiz-adv-x="590" 
d="M297 107q59 0 82.5 28t23.5 83v314h140v-325q0 -106 -63.5 -162.5t-182.5 -56.5q-121 0 -185.5 56.5t-64.5 162.5v325h140v-314q0 -55 24.5 -83t85.5 -28zM295 668q74 0 83 82h62q0 -87 -36 -127t-109 -40q-72 0 -108.5 40t-36.5 127h62q10 -82 83 -82z" />
    <glyph glyph-name="ucircumflex.sc" horiz-adv-x="590" 
d="M297 107q59 0 82.5 28t23.5 83v314h140v-325q0 -106 -63.5 -162.5t-182.5 -56.5q-121 0 -185.5 56.5t-64.5 162.5v325h140v-314q0 -55 24.5 -83t85.5 -28zM408 566l-113 92l-113 -92l-45 48l137 146h43l136 -146z" />
    <glyph glyph-name="udieresis.sc" horiz-adv-x="590" 
d="M297 107q59 0 82.5 28t23.5 83v314h140v-325q0 -106 -63.5 -162.5t-182.5 -56.5q-121 0 -185.5 56.5t-64.5 162.5v325h140v-314q0 -55 24.5 -83t85.5 -28zM150 723h121v-117h-121v117zM321 723h121v-117h-121v117z" />
    <glyph glyph-name="ugrave.sc" horiz-adv-x="590" 
d="M297 107q59 0 82.5 28t23.5 83v314h140v-325q0 -106 -63.5 -162.5t-182.5 -56.5q-121 0 -185.5 56.5t-64.5 162.5v325h140v-314q0 -55 24.5 -83t85.5 -28zM377 565l-252 108l50 94l235 -136z" />
    <glyph glyph-name="uhungarumlaut.sc" horiz-adv-x="590" 
d="M297 107q59 0 82.5 28t23.5 83v314h140v-325q0 -106 -63.5 -162.5t-182.5 -56.5q-121 0 -185.5 56.5t-64.5 162.5v325h140v-314q0 -55 24.5 -83t85.5 -28zM229 570l-58 33l85 167l79 -45zM366 571l-55 39l101 159l74 -50z" />
    <glyph glyph-name="umacron.sc" horiz-adv-x="590" 
d="M297 107q59 0 82.5 28t23.5 83v314h140v-325q0 -106 -63.5 -162.5t-182.5 -56.5q-121 0 -185.5 56.5t-64.5 162.5v325h140v-314q0 -55 24.5 -83t85.5 -28zM160 698h271v-92h-271v92z" />
    <glyph glyph-name="uogonek.sc" horiz-adv-x="590" 
d="M297 107q59 0 82.5 28t23.5 83v314h140v-325q0 -97 -54 -153t-155 -64q-55 -16 -55 -44t50 -28q24 0 52 7l1 -87q-37 -5 -62 -5q-117 0 -117 76q0 51 66 80q-107 6 -164.5 62t-57.5 156v325h140v-314q0 -55 24.5 -83t85.5 -28z" />
    <glyph glyph-name="uring.sc" horiz-adv-x="590" 
d="M297 107q59 0 82.5 28t23.5 83v314h140v-325q0 -106 -63.5 -162.5t-182.5 -56.5q-121 0 -185.5 56.5t-64.5 162.5v325h140v-314q0 -55 24.5 -83t85.5 -28zM412 691q0 -52 -31.5 -83t-85.5 -31t-85 31t-31 83t31 83t85 31t85.5 -31t31.5 -83zM245 691q0 -25 13.5 -39
t36.5 -14t37 14t14 39t-14 38.5t-37 13.5t-36.5 -13.5t-13.5 -38.5z" />
    <glyph glyph-name="utilde.sc" horiz-adv-x="590" 
d="M297 107q59 0 82.5 28t23.5 83v314h140v-325q0 -106 -63.5 -162.5t-182.5 -56.5q-121 0 -185.5 56.5t-64.5 162.5v325h140v-314q0 -55 24.5 -83t85.5 -28zM225 757q26 0 47 -13t32.5 -29t25 -29t26.5 -13q20 0 27.5 18.5t6.5 60.5h59q3 -24 3 -46q0 -61 -23 -93t-63 -32
q-23 0 -43 13t-31.5 29t-26.5 29t-30 13q-19 0 -26.5 -17.5t-7.5 -60.5h-58q-3 25 -3 45q0 62 22.5 93.5t62.5 31.5z" />
    <glyph glyph-name="wacute.sc" horiz-adv-x="798" 
d="M357 224l-36 -224h-194l-134 532h151l44 -224q22 -113 33 -193h20q14 103 31 193l46 224h177l45 -224q13 -71 29 -193h19q7 47 33 193l41 224h142l-130 -532h-203l-37 224q-19 113 -29 198h-17q-11 -77 -31 -198zM338 565l-34 66l236 136l49 -94z" />
    <glyph glyph-name="wcircumflex.sc" horiz-adv-x="798" 
d="M357 224l-36 -224h-194l-134 532h151l44 -224q22 -113 33 -193h20q14 103 31 193l46 224h177l45 -224q13 -71 29 -193h19q7 47 33 193l41 224h142l-130 -532h-203l-37 224q-19 113 -29 198h-17q-11 -77 -31 -198zM517 566l-113 92l-113 -92l-45 48l137 146h43l136 -146z
" />
    <glyph glyph-name="wdieresis.sc" horiz-adv-x="798" 
d="M357 224l-36 -224h-194l-134 532h151l44 -224q22 -113 33 -193h20q14 103 31 193l46 224h177l45 -224q13 -71 29 -193h19q7 47 33 193l41 224h142l-130 -532h-203l-37 224q-19 113 -29 198h-17q-11 -77 -31 -198zM258 723h121v-117h-121v117zM429 723h121v-117h-121v117z
" />
    <glyph glyph-name="wgrave.sc" horiz-adv-x="798" 
d="M357 224l-36 -224h-194l-134 532h151l44 -224q22 -113 33 -193h20q14 103 31 193l46 224h177l45 -224q13 -71 29 -193h19q7 47 33 193l41 224h142l-130 -532h-203l-37 224q-19 113 -29 198h-17q-11 -77 -31 -198zM486 565l-252 108l50 94l235 -136z" />
    <glyph glyph-name="yacute.sc" horiz-adv-x="514" 
d="M327 0h-140v167l-199 355v10h154l107 -249h17l109 249h151v-10l-199 -355v-167zM192 565l-34 66l236 136l49 -94z" />
    <glyph glyph-name="ycircumflex.sc" horiz-adv-x="514" 
d="M327 0h-140v167l-199 355v10h154l107 -249h17l109 249h151v-10l-199 -355v-167zM370 566l-113 92l-113 -92l-45 48l137 146h43l136 -146z" />
    <glyph glyph-name="ydieresis.sc" horiz-adv-x="514" 
d="M327 0h-140v167l-199 355v10h154l107 -249h17l109 249h151v-10l-199 -355v-167zM111 723h121v-117h-121v117zM282 723h121v-117h-121v117z" />
    <glyph glyph-name="zacute.sc" horiz-adv-x="543" 
d="M507 124v-124h-475v114l293 295l-6 11q-110 -12 -158 -12h-121v124h464v-113l-297 -298l5 -10q102 13 154 13h141zM204 565l-34 66l236 136l49 -94z" />
    <glyph glyph-name="zcaron.sc" horiz-adv-x="543" 
d="M507 124v-124h-475v114l293 295l-6 11q-110 -12 -158 -12h-121v124h464v-113l-297 -298l5 -10q102 13 154 13h141zM290 577h-43l-136 145l45 48l113 -92l113 92l45 -48z" />
    <glyph glyph-name="zdotaccent.sc" horiz-adv-x="543" 
d="M507 124v-124h-475v114l293 295l-6 11q-110 -12 -158 -12h-121v124h464v-113l-297 -298l5 -10q102 13 154 13h141zM204 731h131v-125h-131v125z" />
    <glyph glyph-name="germandbls.sc" horiz-adv-x="586" 
d="M391 -9q-106 0 -168 68l62 92q43 -47 100 -47q52 0 52 37q0 18 -14.5 29.5t-46.5 22.5q-54 18 -84 43.5t-30 67.5q0 76 113 110l-3 9q-43 -5 -106 -5q-80 0 -80 -97v-321h-139v333q0 97 56.5 148t165.5 51h229v-112q-64 -16 -92 -34t-28 -41q0 -20 16 -32.5t53 -26.5
q60 -23 88 -55.5t28 -90.5q0 -70 -44.5 -109.5t-127.5 -39.5z" />
    <glyph glyph-name="a.alt" horiz-adv-x="534" 
d="M254 106q44 0 70 29.5t26 78.5v37q0 52 -26 82.5t-71 30.5q-95 0 -95 -131q0 -127 96 -127zM25 233q0 123 43 188.5t121 65.5q112 0 152 -133h9v120h136v-474h-136v124h-8q-19 -64 -58 -101t-97 -37q-77 0 -119.5 64t-42.5 183z" />
    <glyph glyph-name="aacute.alt" horiz-adv-x="534" 
d="M196 513l-34 66l236 136l49 -94zM254 106q44 0 70 29.5t26 78.5v37q0 52 -26 82.5t-71 30.5q-95 0 -95 -131q0 -127 96 -127zM25 233q0 123 43 188.5t121 65.5q112 0 152 -133h9v120h136v-474h-136v124h-8q-19 -64 -58 -101t-97 -37q-77 0 -119.5 64t-42.5 183z" />
    <glyph glyph-name="abreve.alt" horiz-adv-x="534" 
d="M265 616q74 0 83 82h62q0 -87 -36 -127t-109 -40q-72 0 -108.5 40t-36.5 127h62q10 -82 83 -82zM254 106q44 0 70 29.5t26 78.5v37q0 52 -26 82.5t-71 30.5q-95 0 -95 -131q0 -127 96 -127zM25 233q0 123 43 188.5t121 65.5q112 0 152 -133h9v120h136v-474h-136v124h-8
q-19 -64 -58 -101t-97 -37q-77 0 -119.5 64t-42.5 183z" />
    <glyph glyph-name="acircumflex.alt" horiz-adv-x="534" 
d="M374 514l-113 92l-113 -92l-45 48l137 146h43l136 -146zM254 106q44 0 70 29.5t26 78.5v37q0 52 -26 82.5t-71 30.5q-95 0 -95 -131q0 -127 96 -127zM25 233q0 123 43 188.5t121 65.5q112 0 152 -133h9v120h136v-474h-136v124h-8q-19 -64 -58 -101t-97 -37
q-77 0 -119.5 64t-42.5 183z" />
    <glyph glyph-name="adieresis.alt" horiz-adv-x="534" 
d="M117 671h121v-117h-121v117zM288 671h121v-117h-121v117zM254 106q44 0 70 29.5t26 78.5v37q0 52 -26 82.5t-71 30.5q-95 0 -95 -131q0 -127 96 -127zM25 233q0 123 43 188.5t121 65.5q112 0 152 -133h9v120h136v-474h-136v124h-8q-19 -64 -58 -101t-97 -37
q-77 0 -119.5 64t-42.5 183z" />
    <glyph glyph-name="agrave.alt" horiz-adv-x="534" 
d="M339 513l-252 108l50 94l235 -136zM254 106q44 0 70 29.5t26 78.5v37q0 52 -26 82.5t-71 30.5q-95 0 -95 -131q0 -127 96 -127zM25 233q0 123 43 188.5t121 65.5q112 0 152 -133h9v120h136v-474h-136v124h-8q-19 -64 -58 -101t-97 -37q-77 0 -119.5 64t-42.5 183z" />
    <glyph glyph-name="amacron.alt" horiz-adv-x="534" 
d="M123 646h271v-92h-271v92zM254 106q44 0 70 29.5t26 78.5v37q0 52 -26 82.5t-71 30.5q-95 0 -95 -131q0 -127 96 -127zM25 233q0 123 43 188.5t121 65.5q112 0 152 -133h9v120h136v-474h-136v124h-8q-19 -64 -58 -101t-97 -37q-77 0 -119.5 64t-42.5 183z" />
    <glyph glyph-name="aogonek.alt" horiz-adv-x="534" 
d="M254 106q44 0 70 29.5t26 78.5v37q0 52 -26 82.5t-71 30.5q-95 0 -95 -131q0 -127 96 -127zM25 233q0 123 43 188.5t121 65.5q112 0 152 -133h9v120h136v-474h-1q-55 -10 -78.5 -22t-23.5 -32q0 -28 50 -28q24 0 52 7l1 -87q-37 -5 -62 -5q-117 0 -117 76q0 65 99 91h-56
v124h-8q-19 -64 -58 -101t-97 -37q-77 0 -119.5 64t-42.5 183z" />
    <glyph glyph-name="aring.alt" horiz-adv-x="534" 
d="M210 639q0 -25 13.5 -39t36.5 -14t37 14t14 39t-13.5 38.5t-37.5 13.5q-23 0 -36.5 -13.5t-13.5 -38.5zM377 639q0 -52 -31.5 -83t-85.5 -31t-85 31t-31 83t31 83t85 31t85.5 -31t31.5 -83zM254 106q44 0 70 29.5t26 78.5v37q0 52 -26 82.5t-71 30.5q-95 0 -95 -131
q0 -127 96 -127zM25 233q0 123 43 188.5t121 65.5q112 0 152 -133h9v120h136v-474h-136v124h-8q-19 -64 -58 -101t-97 -37q-77 0 -119.5 64t-42.5 183z" />
    <glyph glyph-name="aringacute.alt" horiz-adv-x="534" 
d="M183 744l-20 69l248 85l28 -94zM213 618q0 -21 13 -33.5t35 -12.5t35 12.5t13 34.5q0 21 -13 33.5t-35 12.5t-35 -12.5t-13 -34.5zM375 619q0 -50 -31 -79.5t-83 -29.5q-53 0 -83.5 29.5t-30.5 78.5q0 50 30.5 79.5t83.5 29.5q52 0 83 -29.5t31 -78.5zM254 106
q44 0 70 29.5t26 78.5v37q0 52 -26 82.5t-71 30.5q-95 0 -95 -131q0 -127 96 -127zM25 233q0 123 43 188.5t121 65.5q112 0 152 -133h9v120h136v-474h-136v124h-8q-19 -64 -58 -101t-97 -37q-77 0 -119.5 64t-42.5 183z" />
    <glyph glyph-name="atilde.alt" horiz-adv-x="534" 
d="M190 705q26 0 47 -13t32.5 -29t25 -29t26.5 -13q20 0 27.5 18.5t6.5 60.5h59q3 -24 3 -46q0 -61 -23 -93t-63 -32q-23 0 -43 13t-31.5 29t-26.5 29t-30 13q-19 0 -26.5 -17.5t-7.5 -60.5h-58q-3 25 -3 45q0 62 22.5 93.5t62.5 31.5zM254 106q44 0 70 29.5t26 78.5v37
q0 52 -26 82.5t-71 30.5q-95 0 -95 -131q0 -127 96 -127zM25 233q0 123 43 188.5t121 65.5q112 0 152 -133h9v120h136v-474h-136v124h-8q-19 -64 -58 -101t-97 -37q-77 0 -119.5 64t-42.5 183z" />
    <glyph glyph-name="G.alt" horiz-adv-x="624" 
d="M597 248q0 -112 -67.5 -185t-208.5 -73q-146 0 -221.5 77t-75.5 225q0 152 75 236.5t220 84.5q121 0 185.5 -50t82.5 -150l-135 -29q-13 53 -44 78.5t-90 25.5q-79 0 -114 -49.5t-35 -146.5q0 -90 36.5 -136t117.5 -46q134 0 139 114h-144v108h279v-84z" />
    <glyph glyph-name="Gbreve.alt" horiz-adv-x="624" 
d="M597 248q0 -112 -67.5 -185t-208.5 -73q-146 0 -221.5 77t-75.5 225q0 152 75 236.5t220 84.5q121 0 185.5 -50t82.5 -150l-135 -29q-13 53 -44 78.5t-90 25.5q-79 0 -114 -49.5t-35 -146.5q0 -90 36.5 -136t117.5 -46q134 0 139 114h-144v108h279v-84zM317 737
q74 0 83 71h62q0 -82 -36.5 -119t-108.5 -37t-108.5 37t-36.5 119h62q9 -71 83 -71z" />
    <glyph glyph-name="Gcircumflex.alt" horiz-adv-x="624" 
d="M597 248q0 -112 -67.5 -185t-208.5 -73q-146 0 -221.5 77t-75.5 225q0 152 75 236.5t220 84.5q121 0 185.5 -50t82.5 -150l-135 -29q-13 53 -44 78.5t-90 25.5q-79 0 -114 -49.5t-35 -146.5q0 -90 36.5 -136t117.5 -46q134 0 139 114h-144v108h279v-84zM434 639l-117 76
l-117 -76l-41 49l137 126h43l136 -126z" />
    <glyph glyph-name="Gcommaaccent.alt" horiz-adv-x="624" 
d="M597 248q0 -112 -67.5 -185t-208.5 -73q-146 0 -221.5 77t-75.5 225q0 152 75 236.5t220 84.5q121 0 185.5 -50t82.5 -150l-135 -29q-13 53 -44 78.5t-90 25.5q-79 0 -114 -49.5t-35 -146.5q0 -90 36.5 -136t117.5 -46q134 0 139 114h-144v108h279v-84zM284 -51h104
l-59 -154h-84v9z" />
    <glyph glyph-name="Gdotaccent.alt" horiz-adv-x="624" 
d="M597 248q0 -112 -67.5 -185t-208.5 -73q-146 0 -221.5 77t-75.5 225q0 152 75 236.5t220 84.5q121 0 185.5 -50t82.5 -150l-135 -29q-13 53 -44 78.5t-90 25.5q-79 0 -114 -49.5t-35 -146.5q0 -90 36.5 -136t117.5 -46q134 0 139 114h-144v108h279v-84zM253 786h131v-125
h-131v125z" />
    <glyph glyph-name="g.sc.alt" horiz-adv-x="588" 
d="M430 205h-133v92h261v-72q0 -99 -63 -167.5t-193 -68.5q-136 0 -207 71t-71 207q0 131 70 204.5t204 73.5q218 0 250 -178l-131 -27q-11 44 -38.5 64.5t-80.5 20.5q-132 0 -132 -158q0 -80 33.5 -121t108.5 -41q122 0 122 100z" />
    <glyph glyph-name="gbreve.sc.alt" horiz-adv-x="588" 
d="M430 205h-133v92h261v-72q0 -99 -63 -167.5t-193 -68.5q-136 0 -207 71t-71 207q0 131 70 204.5t204 73.5q218 0 250 -178l-131 -27q-11 44 -38.5 64.5t-80.5 20.5q-132 0 -132 -158q0 -80 33.5 -121t108.5 -41q122 0 122 100zM294 680q74 0 83 82h62q0 -87 -36 -127
t-109 -40q-72 0 -108.5 40t-36.5 127h62q10 -82 83 -82z" />
    <glyph glyph-name="gcircumflex.sc.alt" horiz-adv-x="588" 
d="M430 205h-133v92h261v-72q0 -99 -63 -167.5t-193 -68.5q-136 0 -207 71t-71 207q0 131 70 204.5t204 73.5q218 0 250 -178l-131 -27q-11 44 -38.5 64.5t-80.5 20.5q-132 0 -132 -158q0 -80 33.5 -121t108.5 -41q122 0 122 100zM407 578l-113 92l-113 -92l-45 48l137 146
h43l136 -146z" />
    <glyph glyph-name="gcommaaccent.sc.alt" horiz-adv-x="588" 
d="M430 205h-133v92h261v-72q0 -99 -63 -167.5t-193 -68.5q-136 0 -207 71t-71 207q0 131 70 204.5t204 73.5q218 0 250 -178l-131 -27q-11 44 -38.5 64.5t-80.5 20.5q-132 0 -132 -158q0 -80 33.5 -121t108.5 -41q122 0 122 100zM261 -51h104l-59 -154h-84v9z" />
    <glyph glyph-name="gdotaccent.sc.alt" horiz-adv-x="588" 
d="M430 205h-133v92h261v-72q0 -99 -63 -167.5t-193 -68.5q-136 0 -207 71t-71 207q0 131 70 204.5t204 73.5q218 0 250 -178l-131 -27q-11 44 -38.5 64.5t-80.5 20.5q-132 0 -132 -158q0 -80 33.5 -121t108.5 -41q122 0 122 100zM229 743h131v-125h-131v125z" />
    <glyph glyph-name="g.alt" horiz-adv-x="534" 
d="M254 135q43 0 69.5 27.5t26.5 71.5v23q0 49 -26 78t-71 29q-95 0 -95 -116q0 -113 96 -113zM25 245q0 119 42.5 180.5t121.5 61.5q112 0 152 -133h9v120h136v-428q0 -99 -58 -154t-166 -55q-206 0 -232 140l135 23q14 -58 92 -58q53 0 73 25t20 78v102h-9
q-19 -54 -58.5 -87.5t-93.5 -33.5q-79 0 -121.5 56.5t-42.5 162.5z" />
    <glyph glyph-name="gbreve.alt" horiz-adv-x="534" 
d="M261 616q74 0 83 82h62q0 -87 -36 -127t-109 -40q-72 0 -108.5 40t-36.5 127h62q10 -82 83 -82zM254 135q43 0 69.5 27.5t26.5 71.5v23q0 49 -26 78t-71 29q-95 0 -95 -116q0 -113 96 -113zM25 245q0 119 42.5 180.5t121.5 61.5q112 0 152 -133h9v120h136v-428
q0 -99 -58 -154t-166 -55q-206 0 -232 140l135 23q14 -58 92 -58q53 0 73 25t20 78v102h-9q-19 -54 -58.5 -87.5t-93.5 -33.5q-79 0 -121.5 56.5t-42.5 162.5z" />
    <glyph glyph-name="gcircumflex.alt" horiz-adv-x="534" 
d="M371 514l-113 92l-113 -92l-45 48l137 146h43l136 -146zM254 135q43 0 69.5 27.5t26.5 71.5v23q0 49 -26 78t-71 29q-95 0 -95 -116q0 -113 96 -113zM25 245q0 119 42.5 180.5t121.5 61.5q112 0 152 -133h9v120h136v-428q0 -99 -58 -154t-166 -55q-206 0 -232 140l135 23
q14 -58 92 -58q53 0 73 25t20 78v102h-9q-19 -54 -58.5 -87.5t-93.5 -33.5q-79 0 -121.5 56.5t-42.5 162.5z" />
    <glyph glyph-name="gcommaaccent.alt" horiz-adv-x="534" 
d="M299 541h-104l58 154h85v-9zM254 135q43 0 69.5 27.5t26.5 71.5v23q0 49 -26 78t-71 29q-95 0 -95 -116q0 -113 96 -113zM25 245q0 119 42.5 180.5t121.5 61.5q112 0 152 -133h9v120h136v-428q0 -99 -58 -154t-166 -55q-206 0 -232 140l135 23q14 -58 92 -58q53 0 73 25
t20 78v102h-9q-19 -54 -58.5 -87.5t-93.5 -33.5q-79 0 -121.5 56.5t-42.5 162.5z" />
    <glyph glyph-name="gdotaccent.alt" horiz-adv-x="534" 
d="M193 679h131v-125h-131v125zM254 135q43 0 69.5 27.5t26.5 71.5v23q0 49 -26 78t-71 29q-95 0 -95 -116q0 -113 96 -113zM25 245q0 119 42.5 180.5t121.5 61.5q112 0 152 -133h9v120h136v-428q0 -99 -58 -154t-166 -55q-206 0 -232 140l135 23q14 -58 92 -58q53 0 73 25
t20 78v102h-9q-19 -54 -58.5 -87.5t-93.5 -33.5q-79 0 -121.5 56.5t-42.5 162.5z" />
    <glyph glyph-name="t.alt" horiz-adv-x="311" 
d="M209 0h-136v366h-58v108h58v122h136v-122h87v-108h-87v-366z" />
    <glyph glyph-name="tbar.alt" horiz-adv-x="311" 
d="M209 0h-136v172h-48v72h48v122h-58v108h58v122h136v-122h87v-108h-87v-122h75v-72h-75v-172z" />
    <glyph glyph-name="tcaron.alt" horiz-adv-x="320" 
d="M257 684h89l-22 -160h-71zM209 0h-136v366h-58v108h58v122h136v-122h87v-108h-87v-366z" />
    <glyph glyph-name="tcommaaccent.alt" horiz-adv-x="311" 
d="M209 0h-63l-17 -46q17 6 35 6q72 0 72 -60q0 -26 -22 -47t-71 -21q-62 0 -102 28l27 42q36 -22 75 -22q35 0 35 25q0 23 -35 23q-17 0 -37 -6l-35 14l23 64h-21v366h-58v108h58v122h136v-122h87v-108h-87v-366z" />
    <glyph glyph-name="uni021B.alt" horiz-adv-x="311" 
d="M209 0h-136v366h-58v108h58v122h136v-122h87v-108h-87v-366zM101 -51h104l-59 -154h-84v9z" />
    <glyph glyph-name="zero.sc" horiz-adv-x="547" 
d="M274 427q-112 0 -112 -159q0 -164 110 -164q113 0 113 164q0 159 -111 159zM274 545q116 0 183 -71t67 -206q0 -136 -66 -208.5t-184 -72.5q-119 0 -185 72t-66 209q0 135 67 206t184 71z" />
    <glyph glyph-name="one.sc" horiz-adv-x="450" 
d="M423 0h-388v114h142v299q-46 -28 -119 -56l-42 110l209 65h87v-418h111v-114z" />
    <glyph glyph-name="two.sc" horiz-adv-x="535" 
d="M279 433q-50 0 -76 -27.5t-33 -82.5l-130 14q21 207 240 207q222 0 222 -179q0 -141 -227 -181q-74 -16 -101.5 -32t-31.5 -47q90 9 156 9h204v-114h-478q-2 22 -2 68q0 89 43 133.5t142 68.5q98 25 127.5 44.5t29.5 54.5q0 64 -85 64z" />
    <glyph glyph-name="three.sc" horiz-adv-x="530" 
d="M271 -9q-113 0 -174 41t-71 131l135 14q7 -41 31 -61t81 -20q92 0 92 64q0 31 -19 45t-68 14h-93v92h93q38 0 56 13.5t18 45.5q0 34 -19.5 49t-62.5 15q-50 0 -70 -19t-27 -59l-129 10q23 175 226 175q110 0 161 -35.5t51 -108.5q0 -101 -130 -124v-11q84 -7 117.5 -34.5
t33.5 -84.5q0 -71 -56.5 -111.5t-175.5 -40.5z" />
    <glyph glyph-name="four.sc" horiz-adv-x="542" 
d="M522 116h-68v-116h-133v116h-304v93l265 323h172v-311h68v-105zM310 221h11v209l-9 3l-171 -215l5 -7q74 10 164 10z" />
    <glyph glyph-name="five.sc" horiz-adv-x="533" 
d="M271 96q51 0 72.5 18t21.5 53q0 70 -95 70q-62 0 -108 -31l-108 40v286h417v-126q-164 0 -296 11v-121q57 31 140 31q93 0 139.5 -43.5t46.5 -117.5q0 -175 -234 -175q-106 0 -165 35t-79 116l134 25q27 -71 114 -71z" />
    <glyph glyph-name="six.sc" horiz-adv-x="542" 
d="M280 243q-56 0 -81.5 -20t-25.5 -52t26 -52t79 -20q96 0 96 75q0 69 -94 69zM510 172q0 -88 -60 -135.5t-176 -47.5q-118 0 -182 63.5t-64 212.5q0 123 62 200.5t188 77.5q112 0 160 -41t59 -131l-132 -14q-8 39 -27 57t-62 18q-64 0 -90 -47t-26 -155v-8l12 -1
q34 99 163 99q80 0 127.5 -35.5t47.5 -112.5z" />
    <glyph glyph-name="seven.sc" horiz-adv-x="485" 
d="M13 408v124h460v-120q-165 -165 -177 -412h-155q12 251 214 416q-98 -8 -158 -8h-184z" />
    <glyph glyph-name="eight.sc" horiz-adv-x="536" 
d="M268 -11q-240 0 -240 152q0 51 35 81.5t109 41.5v10q-123 26 -123 123q0 146 219 146q217 0 217 -146q0 -96 -121 -122v-11q74 -12 108.5 -42t34.5 -81q0 -152 -239 -152zM268 222q-57 0 -79.5 -16t-22.5 -47q0 -63 102 -63q101 0 101 63q0 31 -22 47t-79 16zM268 434
q-46 0 -66.5 -15t-20.5 -47q0 -63 87 -63t87 63q0 62 -87 62z" />
    <glyph glyph-name="nine.sc" horiz-adv-x="537" 
d="M261 279q52 0 78 21.5t26 56.5q0 34 -25.5 55t-75.5 21q-98 0 -98 -79q0 -34 24 -54.5t71 -20.5zM260 -11q-109 0 -163 39.5t-68 114.5l132 23q16 -66 102 -66q64 0 90 46t26 152v3l-12 1q-36 -100 -157 -100q-83 0 -131.5 37t-48.5 117q0 89 59 138t173 49
q120 0 184.5 -63.5t64.5 -211.5q0 -123 -62 -201t-189 -78z" />
    <glyph glyph-name="periodcentered.sc" horiz-adv-x="211" 
d="M31 338h148v-143h-148v143z" />
    <glyph glyph-name="bullet.sc" horiz-adv-x="290" 
d="M37 376h217v-208h-217v208z" />
    <glyph glyph-name="ampersand.sc" horiz-adv-x="649" 
d="M241 394q0 -32 17 -69q95 29 95 84q0 45 -53 45q-29 0 -44 -16.5t-15 -43.5zM624 123l5 -124q-30 -5 -67 -5q-96 0 -194 57q-60 -60 -173 -60q-81 0 -131 37.5t-50 107.5q0 58 34 93.5t97 60.5q-28 58 -28 102q0 76 52.5 114t127.5 38q84 0 125.5 -33t41.5 -88
q0 -107 -180 -142q50 -71 129 -116q64 80 87 181l117 -17q-24 -117 -131 -196q46 -13 85 -13q25 0 53 3zM236 86q38 0 65 11q-81 65 -136 155q-33 -30 -33 -83q0 -37 25 -60t79 -23z" />
    <glyph glyph-name="hyphen.sc" horiz-adv-x="350" 
d="M18 328h314v-125h-314v125z" />
    <glyph glyph-name="endash.sc" horiz-adv-x="476" 
d="M18 328h440v-124h-440v124z" />
    <glyph glyph-name="emdash.sc" horiz-adv-x="860" 
d="M18 328h824v-124h-824v124z" />
    <glyph glyph-name="parenleft.sc" horiz-adv-x="330" 
d="M173 257q0 -104 30.5 -188.5t105.5 -172.5l-79 -61q-193 168 -193 422t191 421l80 -61q-76 -81 -105.5 -167.5t-29.5 -192.5z" />
    <glyph glyph-name="parenright.sc" horiz-adv-x="330" 
d="M157 256q0 104 -30.5 188.5t-105.5 172.5l79 62q193 -169 193 -423q0 -253 -192 -420l-80 60q76 82 106 168.5t30 191.5z" />
    <glyph glyph-name="bracketleft.sc" horiz-adv-x="300" 
d="M48 -143v796h238v-97h-105v-603h105v-96h-238z" />
    <glyph glyph-name="bracketright.sc" horiz-adv-x="300" 
d="M14 -142v96h105v603h-105v96h237v-795h-237z" />
    <glyph glyph-name="braceleft.sc" horiz-adv-x="354" 
d="M333 -138q-34 -3 -87 -3q-163 0 -163 115q0 40 38 93.5t38 82.5q0 26 -16.5 38t-57.5 12h-66v104h65q79 0 79 54q0 30 -39.5 86t-39.5 97q0 113 163 113q64 0 86 -2v-96q-18 1 -47 1q-69 0 -69 -46q0 -19 29.5 -66t29.5 -81q0 -83 -126 -105v-10q69 -7 97.5 -29.5
t28.5 -67.5q0 -35 -30.5 -82t-30.5 -66q0 -46 69 -46q31 0 49 1v-97z" />
    <glyph glyph-name="braceright.sc" horiz-adv-x="354" 
d="M107 -141q-64 0 -87 2v97q18 -1 48 -1q69 0 69 46q0 19 -29.5 65.5t-29.5 80.5q0 85 126 105v10q-69 7 -97.5 29.5t-28.5 67.5q0 35 30 82t30 67q0 46 -69 46q-30 0 -48 -1v96q33 3 87 3q163 0 163 -114q0 -33 -19.5 -64t-38.5 -59t-19 -53q0 -26 17 -38t58 -12h65v-105
h-65q-78 0 -78 -54q0 -29 39 -85t39 -97q1 -55 -39 -84.5t-123 -29.5z" />
    <glyph glyph-name="dollar.sc" horiz-adv-x="526" 
d="M211 628h111l-7 -94q157 -18 179 -145l-139 -26q-9 40 -30.5 57.5t-67.5 17.5q-81 0 -81 -48q0 -24 23 -39t98 -27q121 -21 165.5 -63.5t44.5 -107.5q0 -142 -193 -156l8 -107h-111l8 108q-179 18 -197 157l133 28q19 -87 123 -87q88 0 88 48q0 27 -27 42t-101 27
q-111 17 -156 58.5t-45 111.5q0 135 181 151z" />
    <glyph glyph-name="sterling.sc" horiz-adv-x="522" 
d="M492 0h-471v111h85q6 26 6 49q0 16 -3 31h-88v94h60q-17 57 -17 100q0 72 53.5 114t156.5 42q107 0 153.5 -45t57.5 -122l-120 -27q-10 45 -29.5 64t-61.5 19q-79 0 -79 -71q0 -24 12 -74h212v-94h-202q-1 -47 -35 -80h310v-111z" />
    <glyph glyph-name="yen.sc" horiz-adv-x="556" 
d="M521 119h-173v-119h-140v119h-173v81h155l-32 56h-123v85h76l-102 181v10h154l107 -249h17l109 249h151v-10l-102 -181h76v-85h-123l-32 -56h155v-81z" />
    <glyph glyph-name="Euro.sc" horiz-adv-x="615" 
d="M334 -13q-105 0 -171 53t-85 150h-58v48h52q-1 10 -1 30q0 15 1 22h-52v48h57q19 99 87.5 153t173.5 54q108 0 172 -53.5t77 -154.5l-134 -25q-11 60 -39 89t-81 29q-96 0 -118 -92h115v-48h-122q-1 -7 -1 -22q0 -20 1 -30h122v-48h-114q23 -90 117 -90q55 0 82 29t41 91
l132 -22q-13 -101 -78.5 -156t-175.5 -55z" />
    <glyph glyph-name="percent.sc" horiz-adv-x="702" 
d="M36 0v6l284 235l19 -13l-116 -228h-187zM483 532h188v-5l-284 -236l-20 13zM182 228q-75 0 -119 42t-44 116q0 72 44 114t119 42q76 0 119.5 -41.5t43.5 -114.5q0 -74 -43.5 -116t-119.5 -42zM182 312q28 0 44.5 19t16.5 55q0 72 -61 72q-60 0 -60 -72q0 -74 60 -74z
M521 -9q-76 0 -120 42t-44 116q0 72 44.5 114t119.5 42t118.5 -41.5t43.5 -114.5q0 -74 -43.5 -116t-118.5 -42zM520 75q61 0 61 74q0 72 -60 72q-61 0 -61 -72q0 -74 60 -74z" />
    <glyph glyph-name="plus.sc" horiz-adv-x="503" 
d="M183 41v167h-159v123h159v166h137v-166h159v-123h-159v-167h-137z" />
    <glyph glyph-name="minus.sc" horiz-adv-x="481" 
d="M453 209h-426v121h426v-121z" />
    <glyph glyph-name="equal.sc" horiz-adv-x="505" 
d="M466 121h-426v109h426v-109zM466 311h-426v108h426v-108z" />
    <glyph glyph-name="multiply.sc" horiz-adv-x="509" 
d="M380 48q-21 23 -61.5 68t-64.5 71q-73 -81 -125 -139l-96 95q32 29 142 122q-124 107 -142 123l96 95q21 -23 61 -68t65 -73q16 18 58.5 66.5t66.5 74.5l96 -95q-18 -16 -142 -123q20 -17 49.5 -42t51 -43.5t41.5 -36.5z" />
    <glyph glyph-name="divide.sc" horiz-adv-x="481" 
d="M453 209h-426v121h426v-121zM190 496h110v-107h-110v107zM190 155h110v-107h-110v107z" />
    <glyph glyph-name="caron.alt" horiz-adv-x="151" 
d="M34 660h102l-31 -252h-84z" />
    <glyph glyph-name="acute.case" horiz-adv-x="308" 
d="M32 650l-22 69l257 96l32 -101z" />
    <glyph glyph-name="hungarumlaut.case" horiz-adv-x="379" 
d="M89 640l-62 36l85 156l83 -49zM233 640l-58 41l96 150l79 -53z" />
    <glyph glyph-name="grave.case" horiz-adv-x="310" 
d="M277 650l-267 65l32 99l257 -95z" />
    <glyph glyph-name="circumflex.case" horiz-adv-x="356" 
d="M295 639l-117 76l-117 -76l-41 49l137 126h43l136 -126z" />
    <glyph glyph-name="caron.case" horiz-adv-x="356" 
d="M199 644h-43l-136 126l41 48l117 -76l117 76l41 -48z" />
    <glyph glyph-name="breve.case" horiz-adv-x="327" 
d="M167 737q74 0 83 71h62q0 -82 -36.5 -119t-108.5 -37t-108.5 37t-36.5 119h62q9 -71 83 -71z" />
    <glyph glyph-name="tilde.case" horiz-adv-x="357" 
d="M108 823q26 0 47 -13t32.5 -29t25 -29t26.5 -13q20 0 27.5 18.5t6.5 60.5h59q3 -24 3 -46q0 -61 -23 -93t-63 -32q-23 0 -43 13t-31.5 29t-26.5 29t-30 13q-19 0 -26.5 -17.5t-7.5 -60.5h-58q-3 25 -3 45q0 62 22.5 93.5t62.5 31.5z" />
    <glyph glyph-name="macron.case" horiz-adv-x="315" 
d="M20 757h275v-92h-275v92z" />
    <glyph glyph-name="dieresis.case" horiz-adv-x="353" 
d="M28 774h121v-117h-121v117zM199 774h121v-117h-121v117z" />
    <glyph glyph-name="dotaccent.case" horiz-adv-x="195" 
d="M33 786h131v-125h-131v125z" />
    <glyph glyph-name="ring.case" horiz-adv-x="293" 
d="M261 751q0 -50 -31 -79.5t-83 -29.5q-53 0 -83.5 29.5t-30.5 78.5q0 50 30.5 79.5t83.5 29.5q52 0 83 -29.5t31 -78.5zM99 750q0 -21 13 -33.5t35 -12.5t35 12.5t13 34.5q0 21 -13 33.5t-35 12.5t-35 -12.5t-13 -34.5z" />
    <glyph glyph-name="zero.numr" horiz-adv-x="389" 
d="M195 599q-79 0 -79 -103q0 -104 78 -104q79 0 79 104q0 103 -78 103zM195 680q81 0 129 -48.5t48 -135.5q0 -88 -47.5 -136.5t-129.5 -48.5q-83 0 -130 48.5t-47 136.5q0 87 48 135.5t129 48.5z" />
    <glyph glyph-name="one.numr" horiz-adv-x="293" 
d="M283 320h-262v83h92v185q-40 -25 -76 -38l-30 75l134 46h68v-268h74v-83z" />
    <glyph glyph-name="two.numr" horiz-adv-x="368" 
d="M191 603q-59 0 -68 -69l-94 13q16 132 163 132q151 0 151 -115q0 -50 -34.5 -74t-115.5 -39q-48 -10 -66 -22t-21 -33q51 9 103 9h136v-85h-326q0 7 -0.5 21t-0.5 22q0 58 29 90t103 49q57 13 76 26.5t19 34.5q0 40 -54 40z" />
    <glyph glyph-name="three.numr" horiz-adv-x="356" 
d="M178 312q-150 0 -164 113l93 15q8 -52 73 -52q59 0 59 39q0 19 -12.5 28t-44.5 9h-50v62h50q51 0 51 37q0 39 -55 39q-33 0 -47 -12t-20 -38l-90 18q23 108 156 108q150 0 150 -97q0 -65 -87 -79v-11q53 -5 75 -23t22 -55q0 -48 -40 -74.5t-119 -26.5z" />
    <glyph glyph-name="four.numr" horiz-adv-x="366" 
d="M350 396h-44v-76h-94v76h-200v62l170 212h124v-201h44v-73zM212 469v137l-4 1l-113 -144l1 -2q66 8 116 8z" />
    <glyph glyph-name="five.numr" horiz-adv-x="362" 
d="M184 386q61 0 61 43q0 42 -61 42q-44 0 -72 -17l-76 27v189h283v-85q-100 0 -198 8v-78q39 21 94 21q63 0 94 -29t31 -78q0 -116 -159 -116q-144 0 -164 99l93 16q16 -42 74 -42z" />
    <glyph glyph-name="six.numr" horiz-adv-x="370" 
d="M191 476q-69 0 -69 -43q0 -45 68 -45q63 0 63 45q0 43 -62 43zM113 472v-5l7 -2q24 65 109 65q119 0 119 -99q0 -57 -40.5 -88t-120.5 -31t-123.5 42t-43.5 141q0 81 42 132t128 51q74 0 107.5 -26.5t42.5 -83.5l-92 -13q-7 24 -19.5 35t-39.5 11q-43 0 -59.5 -29.5
t-16.5 -99.5z" />
    <glyph glyph-name="seven.numr" horiz-adv-x="332" 
d="M11 587v83h310v-83q-107 -107 -115 -267h-109q7 163 147 274q-59 -7 -112 -7h-121z" />
    <glyph glyph-name="eight.numr" horiz-adv-x="369" 
d="M185 312q-165 0 -165 101q0 34 23.5 52.5t75.5 26.5v9q-87 16 -87 80q0 97 153 97q152 0 152 -97q0 -34 -21 -52.5t-64 -27.5v-9q51 -8 74.5 -26.5t23.5 -52.5q0 -101 -165 -101zM185 464q-38 0 -53.5 -9.5t-15.5 -29.5q0 -39 69 -39q68 0 68 39q0 20 -15 29.5t-53 9.5z
M185 602q-62 0 -62 -39q1 -39 62 -39t61 39q0 21 -14.5 30t-46.5 9z" />
    <glyph glyph-name="nine.numr" horiz-adv-x="364" 
d="M178 506q68 0 68 49q0 21 -17 34t-50 13q-65 0 -65 -49q0 -21 16 -34t48 -13zM177 312q-73 0 -109.5 24.5t-48.5 73.5l91 19q14 -40 69 -40q42 0 59 29t17 97v2l-8 2q-24 -66 -106 -66q-122 0 -122 102q0 59 40.5 91t118.5 32q81 0 125 -42t44 -141q0 -81 -42 -132
t-128 -51z" />
    <glyph glyph-name="zero.dnom" horiz-adv-x="389" 
d="M195 209q-79 0 -79 -103q0 -104 78 -104q79 0 79 104q0 103 -78 103zM195 290q81 0 129 -48.5t48 -135.5q0 -88 -47.5 -136.5t-129.5 -48.5q-83 0 -130 48.5t-47 136.5q0 87 48 135.5t129 48.5z" />
    <glyph glyph-name="one.dnom" horiz-adv-x="293" 
d="M283 -70h-262v83h92v185q-40 -25 -76 -38l-30 75l134 46h68v-268h74v-83z" />
    <glyph glyph-name="two.dnom" horiz-adv-x="368" 
d="M191 213q-59 0 -68 -69l-94 13q16 132 163 132q151 0 151 -115q0 -50 -34.5 -74t-115.5 -39q-48 -10 -66 -22t-21 -33q51 9 103 9h136v-85h-326q0 7 -0.5 21t-0.5 22q0 58 29 90t103 49q57 13 76 26.5t19 34.5q0 40 -54 40z" />
    <glyph glyph-name="three.dnom" horiz-adv-x="357" 
d="M178 -78q-150 0 -164 113l93 15q8 -52 73 -52q59 0 59 39q0 19 -12.5 28t-44.5 9h-50v62h50q51 0 51 37q0 39 -55 39q-33 0 -47 -12t-20 -38l-90 18q23 108 156 108q150 0 150 -97q0 -65 -87 -79v-11q53 -5 75 -23t22 -55q0 -48 -40 -74.5t-119 -26.5z" />
    <glyph glyph-name="four.dnom" horiz-adv-x="366" 
d="M350 6h-44v-76h-94v76h-200v62l170 212h124v-201h44v-73zM212 79v137l-4 1l-113 -144l1 -2q66 8 116 8z" />
    <glyph glyph-name="five.dnom" horiz-adv-x="362" 
d="M184 -4q61 0 61 43q0 42 -61 42q-44 0 -72 -17l-76 27v189h283v-85q-100 0 -198 8v-78q39 21 94 21q63 0 94 -29t31 -78q0 -116 -159 -116q-144 0 -164 99l93 16q16 -42 74 -42z" />
    <glyph glyph-name="six.dnom" horiz-adv-x="369" 
d="M191 86q-69 0 -69 -43q0 -45 68 -45q63 0 63 45q0 43 -62 43zM113 82v-5l7 -2q24 65 109 65q119 0 119 -99q0 -57 -40.5 -88t-120.5 -31t-123.5 42t-43.5 141q0 81 42 132t128 51q74 0 107.5 -26.5t42.5 -83.5l-92 -13q-7 24 -19.5 35t-39.5 11q-43 0 -59.5 -29.5
t-16.5 -99.5z" />
    <glyph glyph-name="seven.dnom" horiz-adv-x="332" 
d="M11 197v83h310v-83q-107 -107 -115 -267h-109q7 163 147 274q-59 -7 -112 -7h-121z" />
    <glyph glyph-name="eight.dnom" horiz-adv-x="369" 
d="M185 -78q-165 0 -165 101q0 34 23.5 52.5t75.5 26.5v9q-87 16 -87 80q0 97 153 97q152 0 152 -97q0 -34 -21 -52.5t-64 -27.5v-9q51 -8 74.5 -26.5t23.5 -52.5q0 -101 -165 -101zM185 74q-38 0 -53.5 -9.5t-15.5 -29.5q0 -39 69 -39q68 0 68 39q0 20 -15 29.5t-53 9.5z
M185 212q-62 0 -62 -39q1 -39 62 -39t61 39q0 21 -14.5 30t-46.5 9z" />
    <glyph glyph-name="nine.dnom" horiz-adv-x="364" 
d="M178 116q68 0 68 49q0 21 -17 34t-50 13q-65 0 -65 -49q0 -21 16 -34t48 -13zM177 -78q-73 0 -109.5 24.5t-48.5 73.5l91 19q14 -40 69 -40q42 0 59 29t17 97v2l-8 2q-24 -66 -106 -66q-122 0 -122 102q0 59 40.5 91t118.5 32q81 0 125 -42t44 -141q0 -81 -42 -132
t-128 -51z" />
    <glyph glyph-name="zero.circle" horiz-adv-x="457" 
d="M228 440q-91 0 -91 -128q0 -132 90 -132q92 0 92 132q0 65 -21.5 96.5t-69.5 31.5zM228 536q98 0 152 -56.5t54 -167.5t-53.5 -168.5t-152.5 -57.5t-152.5 57.5t-53.5 168.5q0 110 55 167t151 57z" />
    <glyph glyph-name="one.circle" horiz-adv-x="366" 
d="M341 91h-308v93h112v237q-37 -20 -93 -39l-36 87l175 52h63v-337h87v-93z" />
    <glyph glyph-name="two.circle" horiz-adv-x="453" 
d="M236 441q-77 0 -90 -88l-108 13q22 165 199 165q182 0 182 -145q0 -112 -187 -146q-61 -13 -83.5 -25.5t-26.5 -37.5q70 8 136 8h161v-93h-394q-2 36 -2 55q0 72 35.5 108t117.5 55q81 20 105.5 36t24.5 44q0 51 -70 51z" />
    <glyph glyph-name="three.circle" horiz-adv-x="445" 
d="M227 85q-92 0 -142 32.5t-60 104.5l112 13q7 -33 26 -49t65 -16q77 0 77 51q0 25 -15.5 36.5t-55.5 11.5h-77v74h77q61 0 61 47q0 27 -16 39.5t-52 12.5q-41 0 -58 -15.5t-23 -49.5l-107 8q21 144 187 144q92 0 133.5 -29t41.5 -87q0 -82 -108 -101v-8q70 -6 98 -28.5
t28 -68.5q0 -57 -46.5 -89.5t-145.5 -32.5z" />
    <glyph glyph-name="four.circle" horiz-adv-x="453" 
d="M434 186h-56v-94h-110v94h-250v75l218 261h142v-251h56v-85zM267 271h1v168l-7 2l-142 -173l4 -5q69 8 144 8z" />
    <glyph glyph-name="five.circle" horiz-adv-x="445" 
d="M225 170q79 0 79 56q0 55 -78 55q-54 0 -91 -22l-88 31v232h344v-100q-127 0 -245 10v-103q49 28 118 28q75 0 113.5 -36t38.5 -96q0 -140 -192 -140q-86 0 -134.5 27.5t-67.5 86.5l107 27q26 -56 96 -56z" />
    <glyph glyph-name="six.circle" horiz-adv-x="453" 
d="M233 287q-88 0 -88 -57q0 -26 21.5 -42t64.5 -16q80 0 80 60q0 55 -78 55zM423 230q0 -71 -49 -109t-145 -38q-97 0 -150 50.5t-53 170.5q0 100 51.5 163t155.5 63q91 0 130.5 -33.5t48.5 -104.5l-109 -12q-7 31 -22 46t-50 15q-53 0 -75 -38.5t-22 -126.5v-1l10 -1
q30 76 135 76q144 0 144 -120z" />
    <glyph glyph-name="seven.circle" horiz-adv-x="401" 
d="M11 424v98h379v-98q-136 -133 -145 -332h-129q10 204 183 339q-77 -7 -146 -7h-142z" />
    <glyph glyph-name="eight.circle" horiz-adv-x="447" 
d="M223 83q-197 0 -197 123q0 41 29 65t91 34v8q-51 11 -76.5 34.5t-25.5 65.5q0 117 179 117q181 0 181 -117q0 -42 -25.5 -65.5t-76.5 -34.5v-8q119 -19 119 -99q0 -123 -198 -123zM223 271q-83 0 -83 -51q0 -50 83 -50q84 0 84 50q0 25 -18.5 38t-65.5 13zM223 442
q-71 0 -71 -49q0 -50 71 -52q72 2 72 52q0 49 -72 49z" />
    <glyph glyph-name="nine.circle" horiz-adv-x="448" 
d="M217 317q43 0 64.5 17.5t21.5 45.5q0 27 -21 44t-63 17q-80 0 -80 -64q0 -27 20 -43.5t58 -16.5zM217 83q-92 0 -136 32.5t-54 93.5l109 18q12 -54 83 -54q53 0 74 36.5t21 121.5l-9 1q-32 -78 -131 -78q-147 0 -147 126q0 71 49 110.5t142 39.5q99 0 152 -50t53 -170
q0 -101 -51 -164t-155 -63z" />
    <glyph glyph-name="thinspace" horiz-adv-x="85" 
 />
    </font>
</defs>
</svg>
